osu file format v9

[General]
AudioFilename: Gunther - Ding Dong Song (Soft Care).mp3
AudioLeadIn: 1000
PreviewTime: 37870
Countdown: 0
SampleSet: Soft
StackLeniency: 0.4
Mode: 0
LetterboxInBreaks: 0

[Editor]
DistanceSpacing: 0.8
BeatDivisor: 2
GridSize: 4

[Metadata]
Title:Ding Dong Song (Soft Care)
Artist:Gunther
Creator:osuplayer111
Version:Easy
Source:
Tags:Pleasureman Sexy Man The Sunshine Girls

[Difficulty]
HPDrainRate:1
CircleSize:3
OverallDifficulty:2
ApproachRate:3
SliderMultiplier:0.7
SliderTickRate:0.5

[Events]
//Background and Video events
0,0,"Ooh.jpg"
//Break Periods
//Storyboard Layer 0 (Background)
//Storyboard Layer 1 (Fail)
//Storyboard Layer 2 (Pass)
//Storyboard Layer 3 (Foreground)
//Storyboard Sound Samples
//Background Colour Transformations
3,100,0,0,0

[TimingPoints]
1620,454.545454545455,4,2,1,80,1,0
22983,-100,4,2,2,80,0,0
23438,-100,4,2,2,80,0,1
23551,-100,4,2,1,80,0,0
37529,-100,4,2,2,80,0,0
37983,-100,4,2,2,80,0,1
38097,-100,4,2,1,80,0,0
52529,-100,4,2,2,80,0,0
52983,454.545454545455,4,2,2,80,1,1
53097,-100,4,2,1,80,0,0
67301,-100,4,2,2,80,0,0
67529,-100,4,2,2,80,0,1
67642,-100,4,2,2,80,0,0

[Colours]
Combo1 : 167,79,255
Combo2 : 53,189,255

[HitObjects]
56,80,1620,2,0,B|136:80,1,70,4|8
256,192,3438,1,4
256,136,3892,1,8
456,80,5256,6,0,B|376:80,1,70,4|8
256,192,7074,1,4
256,248,7529,1,8
104,320,8892,5,2
104,320,9347,2,0,B|40:280|40:184,2,140,8|0|8
256,192,12529,5,2
256,192,12983,2,0,B|256:48,2,140,8|0|8
408,320,16165,5,2
408,320,16620,2,0,B|472:280|472:184,2,140,8|0|8
256,256,19801,6,0,B|256:336,1,70,2|8
256,128,21620,2,0,B|256:48,1,70,2|8
128,192,23438,6,0,B|56:192,1,70,4|8
384,192,25256,2,0,B|456:192,1,70,2|8
308,148,27074,5,2
308,148,27529,2,0,B|380:116|380:20,2,140,8|0|8
204,148,30710,5,2
204,148,31165,2,0,B|132:116|132:20,2,140,8|0|8
184,312,34347,5,2
184,312,34801,2,0,B|336:312,2,140,8|0|8
136,152,37983,5,4
136,96,38438,2,0,B|136:56,1,35,8|2
256,128,39801,1,4
256,184,40256,2,0,B|256:240,1,35,8|4
376,152,41620,5,4
376,96,42074,2,0,B|376:56,1,35,8|2
256,128,43438,1,4
256,184,43892,2,0,B|256:240,1,35,8|4
160,320,45256,5,4
216,320,45710,2,0,B|272:320,1,35,8|2
392,320,47074,1,4
392,264,47529,2,0,B|392:200,1,35,8|4
392,88,48892,5,4
336,88,49347,2,0,B|280:88,1,35,8|2
160,88,50710,1,4
128,136,51165,2,0,B|96:184,1,35,8|4
256,296,52983,5,4
256,240,53437,2,0,B|256:192,2,35,8|2|4
360,192,54801,1,4
360,136,55255,2,0,B|360:80,2,35,8|4|4
256,88,56619,5,4
200,88,57073,2,0,B|152:88,2,35,8|2|4
160,192,58437,1,4
104,192,58892,2,0,B|48:192,2,35,8|4|4
168,288,60255,5,4
208,328,60710,2,0,B|240:368,2,35,8|2|4
256,232,62073,1,4
296,272,62528,2,0,B|328:312,2,35,8|4|4
344,168,63892,5,4
384,208,64346,2,0,B|416:248,2,35,8|2|4
424,104,65710,1,4
464,144,66164,2,0,B|496:184,2,35,8|4|4
384,64,67528,5,4
