osu file format v5

[General]
AudioFilename: Gunnar Nelson.mp3
AudioLeadIn: 0
PreviewTime: -1
Countdown: 1
SampleSet: Normal
StackLeniency: 0.7
Mode: 0
LetterboxInBreaks: 1
EditorBookmarks: 60130,140130

[Metadata]
Title:Team Chaotix
Artist:Gunnar Nelson
Creator:buraimaster1234
Version:Trainee
Source:
Tags:

[Difficulty]
HPDrainRate:5
CircleSize:4
OverallDifficulty:5
SliderMultiplier:1.4
SliderTickRate:1

[Events]
//Background and Video events
0,0,"wall24.jpg"
//Break Periods
2,73663,75476
2,100330,112143
//Storyboard Layer 0 (Background)
//Storyboard Layer 1 (Failing)
//Storyboard Layer 2 (Passing)
//Storyboard Layer 3 (Foreground)
//Storyboard Sound Samples
//Background Colour Transformations
3,100,163,162,255

[TimingPoints]
110,416.666666666667,4,1,0,100

[Colours]
Combo1 : 40,194,18
Combo2 : 196,19,99
Combo3 : 232,243,5

[HitObjects]
96,96,26776,1,0
144,96,26985,1,0
192,96,27193,1,0
288,96,27610,2,0,B|448:96,1,140
416,192,28443,1,0
320,192,28860,1,0
320,192,29068,1,0
272,192,29276,2,0,B|112:192,1,140
96,288,30110,5,0
144,288,30318,1,0
192,288,30526,1,0
288,288,30943,2,0,B|448:288,2,140
288,288,32193,1,0
256,192,32610,1,0
416,96,33443,5,0
368,96,33651,1,0
320,96,33860,1,0
224,96,34276,2,0,B|64:96,1,140
96,192,35110,1,0
168,192,35526,1,2
240,192,35943,2,2,B|336:192,1,70
352,192,36360,1,0
406,225,36568,1,0
416,288,36776,5,0
368,288,36985,1,0
320,288,37193,1,0
224,288,37610,2,0,B|128:288,1,70
96,288,38026,1,0
142,199,38443,5,0
256,192,38860,1,2
256,288,39276,1,0
256,176,39693,5,0
256,96,40109,2,0,B|384:96|448:160|416:256|384:288,1,280
320,320,41359,1,2
256,320,41568,2,0,B|160:320|128:256|160:192|224:192,1,210
192,128,42401,2,0,B|288:128|320:192|288:256|224:256,1,210
256,320,43234,2,2,B|160:320|128:256|160:192|224:192,1,210
288,192,44276,1,4
256,96,44693,5,0
224,160,45109,1,2
256,192,45318,1,0
256,256,45734,1,2
288,288,45943,1,0
416,288,46359,5,2
416,240,46568,1,0
416,192,46776,2,4,B|256:192,1,140
237,167,47401,1,0
192,160,47609,2,0,B|64:160|96:256,1,140
144,256,48234,1,2
208,256,48443,2,4,B|336:256|304:160,1,140
256,128,49693,5,2
319,96,49901,1,0
384,96,50109,2,6,B|160:288,1,280
128,192,51255,5,2
224,160,51568,5,6
320,320,53026,5,2
384,288,53234,1,2
320,256,53443,2,4,B|320:128,2,105
224,288,54693,5,0
160,288,54901,1,0
128,224,55109,1,4
128,160,55318,1,0
256,192,55734,1,6
352,192,56359,6,2,B|352:288,1,70
320,320,56776,2,4,B|160:320,3,140
64,256,58651,1,4
192,224,59484,2,0,B|352:224,1,140
320,160,60109,6,2,B|255:89|169:174,1,140
176,200,60734,1,4
288,192,61359,1,4
240,192,61568,1,0
192,192,61776,1,0
256,256,62193,1,6
160,256,62609,1,0
224,320,63026,1,0
336,336,63443,6,0,L|336:252|400:227|341:207|306:143|276:203|211:222|272:253|272:336,1,560
176,320,65526,1,0
256,256,65943,1,2
160,256,66359,1,0
80,192,66776,6,2,L|304:192,1,210
368,192,67818,1,2
432,96,68443,2,6,L|208:96,1,210
144,96,69484,1,6
96,192,70109,6,0,C|96:272|176:256,1,140
200,216,70734,2,6,C|266:202|256:288,1,140
352,192,71568,1,6
256,192,71776,12,0,73443
128,160,76776,6,6,C|288:160,1,140
384,224,77609,2,6,C|224:224,1,140
160,288,78443,6,0,C|80:288|96:208,1,140
120,184,79068,2,6,C|176:147|248:153,1,140
320,96,80110,1,2
384,128,80318,1,0
416,224,80735,1,6
336,296,81151,1,6
256,224,81568,2,4,C|32:224,2,210
256,224,83026,1,0
384,160,83443,6,6,C|224:160,1,140
128,224,84276,2,6,C|288:224,1,140
352,288,85110,6,0,C|432:288|416:208,1,140
392,184,85735,2,6,C|336:147|264:153,1,140
192,96,86776,1,2
128,128,86985,1,0
96,224,87401,1,6
176,296,87818,1,6
256,224,88235,2,4,C|480:224,2,210
256,224,89693,1,0
160,256,90110,6,0,C|128:256|96:224,1,70
64,160,90735,2,4,C|288:160,1,210
224,96,91776,2,0,C|224:256,1,140
256,288,92610,2,0,C|416:288,1,140
480,256,93443,5,0
480,160,93860,1,0
416,160,94068,2,2,C|256:160,1,140
224,160,94693,1,0
128,128,95110,1,0
224,256,95526,1,4
320,128,95943,1,0
160,224,96360,1,4
256,192,96568,12,4,100110
32,160,113443,1,0
64,160,113651,2,0,C|224:160,1,140
224,192,114276,1,0
256,192,114485,2,0,C|416:192,1,140
416,224,115110,1,2
448,256,115318,6,0,C|288:256,1,140
288,288,115943,1,0
256,320,116151,2,0,C|96:320,1,140
64,320,116776,1,2
96,224,117193,1,0
192,160,117610,6,6,C|320:160,2,105
80,160,118860,1,0
144,160,119276,1,0
192,192,119693,1,2
192,160,119901,1,0
192,128,120110,6,2,C|320:128,1,105
384,128,120735,1,6
384,256,121360,1,0
320,320,121776,2,6,C|192:320,2,105
384,224,123026,1,0
384,176,123235,1,0
384,128,123443,5,2
288,96,123860,1,0
192,96,124276,2,6,C|64:96,1,105
64,160,124901,1,6
112,288,126360,5,0
192,288,126776,2,0,C|192:192,2,70
224,320,127401,1,2
272,320,127610,2,6,C|368:320,2,70
272,224,128443,2,4,C|432:224,1,140
320,128,129693,5,0
256,128,129901,2,4,C|256:288,2,140
192,128,130943,1,6
96,128,131255,5,2
160,192,131568,5,6
128,288,133026,5,2
176,288,133235,1,0
224,288,133443,2,4,C|352:288,1,105
416,288,134068,1,2
448,160,134693,1,0
352,160,135110,2,4,C|224:160,1,105
160,160,135735,1,2
128,256,136360,5,4
192,256,136568,2,4,C|320:256|320:96,2,280
128,256,138443,1,2
160,160,138860,1,0
256,192,139485,2,0,C|256:272|256:256|288:224,1,140
336,192,140110,6,2,B|304:96|208:128,1,140
176,128,140735,1,2
80,192,141360,1,2
112,224,141568,1,0
144,256,141776,1,2
216,192,142193,1,0
296,256,142610,1,2
368,192,143026,1,0
336,160,143235,1,0
304,128,143443,6,6,B|240:64|176:128,1,140
144,160,144068,1,6
224,240,144485,1,0
256,136,144901,1,4
416,192,146776,6,0,L|336:192|288:240,1,140
256,272,147401,1,0
208,336,147818,1,0
128,288,148235,1,0
96,256,148443,2,6,L|64:224|96:192,3,70
192,192,149693,5,0
256,96,150110,1,6
320,96,150318,1,0
384,160,150735,1,6
288,224,151151,1,4
192,160,151568,1,6
256,192,151776,12,0,154693
224,64,155110,2,6,L|224:224,1,140
288,320,155943,2,6,L|288:160,1,140
288,96,156776,6,6,L|128:96,1,140
96,96,157401,1,0
64,160,157818,1,0
128,224,158443,2,0,C|128:288|224:288,3,140
256,224,160109,1,2
256,192,160318,12,0,161359
288,64,161776,2,6,L|288:224,1,140
224,320,162609,2,6,L|224:160,1,140
224,96,163443,6,6,L|384:96,1,140
416,96,164068,1,0
448,160,164484,1,0
384,224,165109,2,0,C|384:288|288:288,3,140
256,224,166776,1,4
128,128,168443,6,0,C|416:128,1,280
368,160,169484,1,0
256,192,169901,1,6
256,192,170109,12,0,171359
352,256,171776,2,0,C|128:256,2,210
312,216,173234,1,0
256,192,173443,1,6
160,192,174693,5,0
160,128,174901,2,2,L|384:128,1,210
384,192,175734,2,0,L|288:192,1,70
256,192,176151,2,4,L|224:224,4,35
160,192,177193,2,0,B|192:64|320:64|352:192,2,280
192,256,179276,2,0,B|352:256,1,140
384,288,180109,5,6
384,128,180526,1,6
128,128,180943,1,6
128,288,181359,1,6
96,224,181776,5,0
128,192,181984,1,0
192,160,182401,2,0,B|288:128|384:224|320:320|192:288|224:224,1,280
192,224,183443,1,0
215,182,183651,1,0
307,197,184068,1,0
256,128,184484,2,0,B|173:39|32:128,2,210
288,176,185943,2,2,B|320:208|252:207|252:271|320:304,1,140
128,288,186776,5,6
128,128,187193,1,6
384,128,187610,1,6
384,288,188026,1,6
440,240,188443,5,0
392,184,188859,1,0
360,149,189068,2,0,B|274:82|136:149,1,210
160,224,190109,2,6,B|266:254|192:320,2,140
200,176,191151,1,0
264,160,191359,1,0
320,160,191568,2,6,B|384:256|320:320|256:288|256:224,1,210
192,272,193443,5,0
128,240,193651,1,2
48,192,194068,1,0
128,144,194484,1,2
192,112,194693,1,0
224,192,195109,2,6,B|384:192,3,140
320,112,196776,5,0
400,160,197193,1,0
464,192,197401,1,2
384,240,197818,1,2
320,272,198026,1,0
288,192,198443,1,0
192,192,198859,2,2,C|32:192,1,140
256,192,199693,12,2,201568
