osu file format v5

[General]
AudioFilename: Gunnar Nelson.mp3
AudioLeadIn: 0
PreviewTime: -1
Countdown: 1
SampleSet: Normal
StackLeniency: 0.7
Mode: 0
LetterboxInBreaks: 1
EditorBookmarks: 60130,140130

[Metadata]
Title:Team Chaotix
Artist:Gunnar Nelson
Creator:buraimaster1234
Version:Newbie
Source:
Tags:

[Difficulty]
HPDrainRate:3
CircleSize:3
OverallDifficulty:3
SliderMultiplier:1.2
SliderTickRate:1

[Events]
//Background and Video events
0,0,"wall24.jpg"
//Break Periods
2,73663,75356
2,100330,112143
//Storyboard Layer 0 (Background)
//Storyboard Layer 1 (Failing)
//Storyboard Layer 2 (Passing)
//Storyboard Layer 3 (Foreground)
//Storyboard Sound Samples
//Background Colour Transformations
3,100,163,162,255

[TimingPoints]
110,416.666666666667,4,1,0,100

[Colours]
Combo1 : 40,194,18
Combo2 : 196,19,99
Combo3 : 232,243,5

[HitObjects]
96,96,26776,1,0
192,96,27193,1,0
288,96,27610,2,0,B|416:96,1,120
416,192,28443,1,0
320,192,28860,1,0
224,192,29276,2,0,B|96:192,1,120
96,288,30110,5,0
192,288,30526,1,0
288,288,30943,2,0,B|416:288,2,120
256,192,32610,1,0
416,96,33443,5,0
320,96,33860,1,0
224,96,34276,2,0,B|96:96,1,120
96,192,35110,1,0
192,192,35526,1,2
288,192,35943,2,2,B|416:192,1,120
416,288,36776,5,0
320,288,37193,1,0
224,288,37610,2,0,B|96:288,1,120
256,192,38860,1,0
256,96,39693,5,0
352,96,40109,2,0,B|352:352,2,240
256,96,42193,1,0
160,96,42609,2,0,B|160:352,2,240
256,96,44693,1,0
224,160,45109,1,6
256,224,45526,1,6
288,288,45943,1,6
416,224,46776,6,0,B|288:224,1,120
192,224,47609,1,0
96,224,48026,1,0
96,128,48443,1,4
192,128,48859,1,4
384,96,50109,6,6,B|192:288,1,240
160,192,51255,5,2
256,160,51568,5,6
352,256,53443,6,4,B|352:128,3,120
256,128,55109,1,4
160,128,55526,1,0
160,224,55943,1,6
256,224,56359,1,0
256,320,56776,2,2,B|128:320,3,120
64,224,58651,1,4
167,135,60109,6,2,B|257:64|355:149,1,180
256,192,61359,1,4
160,192,61776,1,0
224,256,62193,1,6
128,256,62609,1,0
192,320,63026,1,0
288,320,63443,6,0,L|288:256|338:241|288:224|255:159|224:226|171:241|223:257|224:320,1,480
128,320,65526,1,0
224,288,65943,1,2
144,248,66359,1,0
64,192,66776,6,2,L|256:192,1,180
336,192,67818,1,2
432,96,68443,2,6,L|240:96,1,180
160,96,69484,1,6
96,192,70109,6,0,C|96:288|192:288,1,180
256,224,71151,1,6
320,288,71568,1,6
256,192,71776,12,0,73443
160,160,76776,6,6,C|288:160,1,120
352,224,77609,2,6,C|224:224,1,120
160,288,78443,6,0,C|96:288|96:224,1,120
128,160,79276,1,0
200,112,79693,1,0
288,96,80110,1,2
384,96,80526,1,0
384,192,80943,1,2
304,256,81360,2,4,C|64:256,2,240
352,160,83443,6,6,C|224:160,1,120
160,224,84276,2,6,C|288:224,1,120
352,288,85110,6,0,C|416:288|416:224,1,120
384,160,85943,1,0
312,112,86360,1,0
224,96,86776,1,2
128,96,87193,1,0
128,192,87610,1,2
208,256,88026,2,4,C|448:256,2,240
160,192,90110,6,0,C|352:192,2,180
96,128,91776,2,0,C|224:128,1,120
288,128,92610,2,0,C|416:128,1,120
448,192,93443,6,2,C|256:192,2,180
448,272,95110,1,0
352,272,95526,1,4
256,272,95943,1,0
160,272,96360,1,4
256,192,96568,12,4,100110
128,160,113443,6,0,C|256:160,1,120
288,192,114276,2,0,C|416:192,1,120
448,224,115110,1,2
384,256,115526,2,0,C|256:256,1,120
224,288,116360,2,0,C|96:288,1,120
64,320,117193,1,2
64,240,117610,2,6,C|160:240,2,90
112,160,119276,1,0
192,128,120110,6,2,C|384:128,1,180
320,256,121360,2,4,C|128:256,2,180
384,176,123026,1,0
384,80,123443,1,2
288,80,123860,1,0
192,112,124276,2,6,C|96:112,1,90
64,160,124901,1,6
192,288,126776,6,6,C|192:160,2,120
288,288,128026,1,0
288,192,128443,2,4,C|416:192,1,120
288,96,129693,5,0
192,96,130110,2,6,C|192:224,2,120
96,128,131255,5,2
160,192,131568,5,6
128,288,133026,5,0
224,288,133443,2,4,C|416:288,1,180
448,160,134693,1,2
352,160,135110,2,4,C|160:160,1,180
128,256,136360,5,4
224,256,136776,2,4,C|352:256|352:128,2,240
160,192,138860,1,0
384,128,140110,6,2,C|192:128,1,180
96,192,141360,1,0
160,256,141776,1,2
224,192,142193,1,0
288,256,142610,1,2
352,192,143026,1,0
288,128,143443,6,6,B|198:57|100:142,1,180
160,208,144485,1,0
256,192,144901,1,4
416,192,146776,6,0,L|320:192|256:256,1,180
176,304,148026,1,0
96,256,148443,2,6,L|83:219|109:213,3,60
192,192,149693,5,0
272,128,150110,1,6
384,176,150735,1,6
304,224,151151,1,4
224,176,151568,1,6
256,192,151776,12,0,154276
224,96,155110,2,6,L|224:224,1,120
288,288,155943,2,6,L|288:160,1,120
288,80,156776,6,6,L|96:80,1,180
64,160,157818,1,0
128,240,158443,2,0,C|128:304|192:304,3,120
256,256,160109,1,2
288,96,161776,6,6,L|288:224,1,120
224,288,162609,2,6,L|224:160,1,120
224,80,163443,6,6,L|416:80,1,180
448,160,164484,1,0
384,240,165109,2,0,C|384:304|320:304,3,120
256,256,166776,1,4
128,128,168443,6,0,C|384:128,1,240
256,192,169901,1,6
256,192,170109,12,0,170943
352,256,171776,2,0,C|160:256,2,180
256,192,173443,1,6
160,160,174901,6,0,B|256:32|358:173,2,240
64,192,177193,2,0,B|448:192,2,360
64,272,180109,6,6,B|192:272,1,120
256,272,180943,2,6,B|384:272,1,120
416,192,181776,5,0
320,128,182401,2,0,B|224:96|128:192|192:288|320:256|288:192,1,300
288,128,183859,1,0
216,88,184276,2,0,B|120:24|24:88,2,180
448,272,186776,6,6,B|320:272,1,120
256,272,187609,2,6,B|128:272,1,120
64,224,188443,5,0
144,160,189068,2,0,B|240:128|336:160,1,180
384,224,190109,2,6,B|288:256|352:320,3,120
240,320,191776,1,4
160,256,193443,5,0
64,192,194068,1,0
160,128,194693,1,0
224,192,195109,2,6,B|352:192,3,120
352,128,196776,5,0
448,192,197401,1,0
352,256,198026,1,0
288,192,198443,1,0
192,192,198859,2,2,B|64:192,1,120
256,192,199693,12,2,201568
