osu file format v5

[General]
AudioFilename: Gunnar Nelson.mp3
AudioLeadIn: 0
PreviewTime: -1
Countdown: 1
SampleSet: Normal
StackLeniency: 0.7
Mode: 0
LetterboxInBreaks: 1
EditorBookmarks: 60130,140130

[Metadata]
Title:Team Chaotix
Artist:Gunnar Nelson
Creator:buraimaster1234
Version:Ace
Source:
Tags:

[Difficulty]
HPDrainRate:6
CircleSize:5
OverallDifficulty:6
SliderMultiplier:1.6
SliderTickRate:2

[Events]
//Background and Video events
0,0,"wall24.jpg"
//Break Periods
2,73663,75746
2,100330,112205
//Storyboard Layer 0 (Background)
//Storyboard Layer 1 (Failing)
//Storyboard Layer 2 (Passing)
//Storyboard Layer 3 (Foreground)
//Storyboard Sound Samples
//Background Colour Transformations
3,100,163,162,255

[TimingPoints]
110,416.666666666667,4,1,0,100

[Colours]
Combo1 : 40,194,18
Combo2 : 196,19,99
Combo3 : 232,243,5

[HitObjects]
96,96,26776,1,0
144,96,26985,1,0
192,96,27193,1,0
240,96,27401,1,0
288,96,27610,2,0,B|480:96,1,160
440,144,28235,1,0
416,184,28443,5,0
368,192,28651,1,0
320,192,28860,1,0
320,192,29068,1,0
272,192,29276,2,0,B|80:192,1,160
80,240,29901,1,0
96,280,30110,5,0
144,288,30318,1,0
192,288,30526,1,0
240,288,30735,1,0
288,288,30943,2,0,B|384:288,2,80
288,288,31568,1,0
288,288,31776,5,0
288,288,32193,1,0
256,192,32610,1,0
448,128,33235,5,0
416,104,33443,1,0
368,96,33651,1,0
320,96,33860,1,0
272,96,34068,1,0
224,96,34276,2,0,B|128:96,2,80
192,128,34901,1,0
112,128,35110,5,0
112,128,35318,1,0
112,192,35526,1,2
240,192,35943,2,2,B|336:192,1,80
360,192,36360,1,0
408,232,36568,1,0
416,288,36776,5,0
368,288,36985,1,0
320,288,37193,1,0
320,288,37401,1,0
224,288,37610,2,0,B|128:288,1,80
96,288,38026,1,0
142,199,38443,5,0
256,192,38860,1,2
256,288,39276,1,0
256,176,39693,5,0
256,96,40109,2,0,B|388:80|473:151|423:256|384:288,1,320
320,320,41359,1,2
256,320,41568,2,0,B|162:339|104:243|176:174|224:192,1,240
192,128,42401,2,0,B|286:109|344:205|272:274|224:256,1,240
256,320,43234,2,2,B|162:339|104:243|176:174|224:192,1,240
288,192,44276,1,4
256,96,44693,5,0
224,160,45109,1,2
256,192,45318,1,0
224,224,45526,1,4
256,256,45734,1,2
292,280,45943,1,0
336,296,46151,1,0
416,288,46359,5,2
416,240,46568,1,0
416,192,46776,2,4,B|224:192,1,160
224,168,47401,1,0
184,160,47609,2,0,B|56:160|88:256,1,160
128,272,48234,1,2
176,272,48443,2,4,B|304:272|272:176,1,160
256,128,49693,5,2
317,98,49901,1,0
384,96,50109,2,6,B|128:320,1,320
96,224,51255,5,2
192,192,51568,5,6
256,256,52609,5,0
256,320,52818,1,2
320,320,53026,1,2
384,288,53234,1,2
320,256,53443,2,4,B|320:128,2,120
320,256,54276,1,0
256,288,54484,5,0
192,288,54693,1,0
128,288,54901,1,0
96,224,55109,1,4
96,160,55318,1,0
224,192,55734,1,6
336,192,56359,6,2,B|336:288,1,80
304,320,56776,2,4,B|112:320,3,160
64,256,58443,1,0
64,256,58651,1,4
176,224,59484,2,0,B|368:224,1,160
336,160,60109,6,2,B|271:89|185:174,1,160
184,208,60734,1,4
288,192,61359,1,4
240,192,61568,1,0
192,192,61776,1,2
224,224,61984,1,0
256,256,62193,1,6
160,256,62609,1,0
224,320,63026,1,0
288,320,63234,1,0
352,320,63443,6,0,L|352:257|421:234|354:211|320:144|289:207|219:229|288:257|288:320,1,560
288,317,65110,1,4
192,320,65526,1,0
240,256,65943,1,2
144,256,66359,1,4
112,192,66776,6,2,L|368:192,1,240
400,192,67609,1,0
456,184,67818,1,2
488,144,68026,1,4
424,96,68443,2,6,L|232:96,1,160
208,128,69068,1,0
104,88,69484,1,6
128,160,69901,5,0
96,208,70109,2,0,C|96:288|176:272,1,160
208,224,70734,2,6,C|287:206|264:296,1,160
352,192,71568,1,6
256,192,71776,12,0,73443
256,160,76776,6,6,C|96:160,1,160
256,224,77609,2,6,C|416:224,1,160
160,288,78443,6,0,C|80:288|96:208,1,160
128,160,79068,2,6,C|184:112|275:138,1,160
352,64,80110,1,2
384,128,80318,1,0
464,216,80735,1,6
376,288,81151,1,6
256,224,81568,2,4,C|80:224|160:224,2,240
256,224,83026,1,0
256,160,83443,6,6,C|416:160,1,160
256,224,84276,2,6,C|96:224,1,160
352,288,85110,6,0,C|432:288|416:208,1,160
384,160,85735,2,6,C|328:112|237:138,1,160
160,64,86776,1,2
128,128,86985,1,0
48,216,87401,1,6
144,288,87818,1,6
256,224,88235,2,4,C|432:224|352:224,2,240
256,224,89693,1,0
160,256,90110,6,0,C|122:267|96:224,1,80
64,200,90526,1,0
64,160,90735,2,4,C|224:160,1,160
256,128,91360,1,0
256,128,91568,1,0
256,160,91776,2,0,C|256:320,1,160
256,320,92401,1,2
304,320,92610,2,0,C|384:320,1,80
432,320,93026,1,2
424,264,93235,1,0
368,248,93443,5,0
352,192,93651,1,0
416,192,93860,1,0
416,128,94068,2,2,C|256:128,1,160
256,128,94693,1,0
160,128,95110,1,0
112,224,95318,1,0
256,256,95526,1,4
336,80,95943,1,0
136,240,96360,1,4
256,192,96568,12,4,100110
64,192,113235,5,0
32,160,113443,1,0
64,160,113651,2,0,C|224:160,1,160
224,192,114276,1,0
256,192,114485,2,0,C|416:192,1,160
432,224,115110,1,2
448,256,115318,6,0,C|288:256,1,160
272,288,115943,1,0
256,320,116151,2,0,C|96:320,1,160
32,320,116776,1,0
32,256,116985,5,0
96,256,117193,1,0
192,160,117610,2,6,C|320:160,2,120
40,160,118860,1,0
72,192,119068,1,0
104,160,119276,1,0
192,192,119693,1,2
224,160,119901,1,0
192,128,120110,6,2,C|320:128,1,120
384,128,120735,1,6
400,208,121151,1,0
352,240,121360,1,0
384,288,121568,1,0
320,288,121776,2,6,C|192:288,2,120
400,256,122818,1,0
352,224,123026,1,0
384,176,123235,1,0
384,120,123443,5,2
336,104,123651,1,0
280,96,123860,1,0
216,96,124068,1,0
144,96,124276,2,6,C|16:96,1,120
80,160,124901,1,6
128,256,126360,5,0
160,288,126568,1,0
208,288,126776,2,0,C|208:192,2,80
240,320,127401,1,2
288,320,127610,2,6,C|384:320,2,80
256,272,128235,1,0
256,224,128443,2,4,C|416:224,1,160
352,144,129485,1,0
288,128,129693,5,0
224,128,129901,2,4,C|224:245|224:192,2,160
160,128,130943,1,6
80,160,131255,5,2
160,208,131568,5,6
80,288,132818,5,0
128,288,133026,1,2
176,288,133235,1,0
224,288,133443,2,4,C|352:288,1,120
416,288,134068,1,2
448,208,134485,5,0
448,160,134693,1,2
400,160,134901,1,0
352,160,135110,2,4,C|224:160,1,120
160,160,135735,1,2
128,256,136360,5,4
192,256,136568,2,4,C|320:256|320:112,2,240
192,256,138026,1,0
128,256,138443,1,2
160,160,138860,1,0
256,192,139485,2,0,C|256:288|256:272|288:240,1,160
336,200,140110,6,2,B|304:104|208:136,1,160
176,160,140735,1,2
96,176,141151,1,0
80,224,141360,1,0
112,256,141568,1,0
144,288,141776,1,2
176,256,141985,1,0
224,240,142193,1,0
304,288,142610,1,2
368,224,143026,1,0
336,192,143235,1,0
304,160,143443,6,6,B|240:96|144:160,1,160
144,200,144068,1,6
232,264,144485,1,0
256,160,144901,1,4
416,192,146776,6,0,L|336:192|272:256,1,160
256,288,147401,1,0
208,336,147818,1,0
160,320,148026,1,0
120,288,148235,1,0
88,256,148443,2,6,L|56:224|88:192,3,80
192,192,149693,5,0
256,96,150110,1,6
320,96,150318,1,0
384,160,150735,1,6
288,224,151151,1,4
192,160,151568,1,6
256,192,151776,12,0,154693
96,96,155110,1,6
416,288,155526,1,6
416,96,155943,1,6
96,288,156360,1,6
160,160,156776,6,6,L|320:160,1,160
384,160,157401,1,0
288,224,157818,1,0
128,224,158443,1,0
64,256,158651,1,0
128,288,158859,2,2,C|224:320|288:256,1,160
266,282,159484,1,0
352,256,159693,1,4
224,192,160109,1,2
256,192,160318,12,0,161359
416,96,161776,1,6
96,288,162193,1,6
96,96,162609,1,6
416,288,163026,1,6
352,160,163443,6,6,L|192:160,1,160
128,160,164068,1,0
224,224,164484,1,0
384,224,165109,1,0
448,256,165318,1,0
384,288,165526,2,2,C|288:320|224:256,1,160
246,282,166151,1,0
160,256,166359,1,4
288,192,166776,1,4
256,192,166984,12,0,168026
128,128,168443,2,0,C|384:128,1,240
416,224,169276,1,0
384,192,169380,1,0
352,160,169484,1,0
320,224,169693,1,0
288,192,169797,1,0
256,160,169901,1,0
160,96,170109,6,2,C|160:288,1,160
352,96,170943,2,2,C|352:288,1,160
352,256,171776,6,0,C|96:256,1,240
160,160,172609,1,0
192,192,172714,1,0
224,224,172818,1,0
224,224,173026,1,0
256,160,173234,1,0
288,192,173339,1,0
320,224,173443,1,0
320,224,173651,1,0
352,160,173859,1,2
384,192,173964,1,2
416,224,174068,1,2
416,224,174276,1,2
320,224,174484,1,4
160,192,174693,5,0
160,128,174901,2,2,L|352:128,1,160
384,128,175526,1,0
384,192,175734,2,0,L|288:192,1,80
224,192,176151,1,4
224,192,176255,1,4
224,192,176359,1,4
224,192,176464,1,4
224,192,176568,1,4
224,192,176776,1,0
144,189,177193,6,0,B|187:53|322:48|375:204,2,320
192,256,179276,2,0,B|384:256,1,160
480,32,180109,5,6
32,32,180526,1,6
480,352,180943,1,6
32,352,181359,1,6
416,224,181776,5,0
384,192,181984,1,0
312,160,182401,2,0,B|212:135|171:204|193:324|311:263|311:263,1,240
344,224,183443,1,0
329,182,183651,1,0
237,197,184068,1,0
288,128,184484,2,0,B|388:37|512:128,2,240
272,176,185943,2,2,B|323:216|225:203|240:287|329:288,1,160
32,32,186776,5,6
480,32,187193,1,6
32,352,187609,1,6
480,352,188026,1,6
424,248,188443,5,0
384,192,188859,1,0
352,160,189068,2,0,B|245:57|117:166,1,240
136,240,190109,2,6,B|232:272|168:336,2,120
152,184,190943,1,0
204,153,191151,1,0
264,144,191359,1,0
320,160,191568,2,6,B|384:256|320:320|256:288|224:224,2,240
256,128,193026,2,0,C|160:128,1,80
176,256,193443,5,0
120,224,193651,1,2
64,192,194068,1,0
120,160,194484,1,2
176,128,194693,1,0
224,192,195109,2,6,B|416:192,3,160
336,128,196776,5,0
392,160,197193,1,0
448,192,197401,1,2
392,224,197818,1,2
336,256,198026,1,0
288,192,198443,1,0
192,192,198859,2,2,C|79:191|160:192,1,160
256,192,199693,12,2,201568
