osu file format v5

[General]
AudioFilename: Gundam00s2op1.mp3
AudioLeadIn: 3000
PreviewTime: -1
Countdown: 1
SampleSet: Normal
StackLeniency: 0.7
Mode: 1
LetterboxInBreaks: 1
SkinPreference:taiko

[Metadata]
Title:Gundam00s2op1
Artist:
Creator:cccccl0931
Version:Insane
Source:
Tags:

[Difficulty]
HPDrainRate:0
CircleSize:3
OverallDifficulty:0
SliderMultiplier:1.4
SliderTickRate:1

[Events]
//Background and Video events
1,0,"video(3).flv"
//Break Periods
//Storyboard Layer 0 (Background)
//Storyboard Layer 1 (Failing)
//Storyboard Layer 2 (Passing)
//Storyboard Layer 3 (Foreground)
//Storyboard Sound Samples
//Background Colour Transformations
3,100,163,162,255

[TimingPoints]
0,315.789473684211,4,1,0,100,1

[HitObjects]
256,192,0,1,8
256,192,315,1,8
256,192,473,1,8
256,192,789,1,8
256,192,868,1,8
256,192,947,1,0
256,192,1421,1,0
256,192,1500,1,0
256,192,1578,1,0
256,192,1736,1,8
256,192,2052,1,0
256,192,2131,1,0
256,192,2210,1,8
256,192,2526,1,0
256,192,2605,1,0
256,192,2684,1,0
256,192,2842,1,0
256,192,3157,1,0
256,192,3473,1,8
256,192,3789,1,0
256,192,3868,1,0
256,192,3947,1,8
256,192,4105,1,0
256,192,4736,1,0
256,192,4815,1,0
256,192,4894,1,8
256,192,5131,1,8
256,192,5210,1,8
256,192,5368,1,8
256,192,5684,1,0
256,192,5763,1,0
256,192,5842,1,8
256,192,6157,1,8
256,192,6473,1,8
256,192,6552,1,0
256,192,6631,1,0
256,192,6789,1,8
256,192,7105,1,8
256,192,7184,1,8
256,192,7263,1,8
256,192,7578,1,8
256,192,7894,1,8
256,192,8052,1,0
256,192,8210,1,0
256,192,8368,1,8
256,192,8526,1,0
256,192,8605,1,0
256,192,8684,1,8
256,192,8842,1,0
256,192,9000,1,8
256,192,9157,1,0
256,192,9473,1,8
256,192,9552,1,8
256,192,9631,1,8
256,192,9789,1,8
256,192,9947,1,0
256,192,10105,1,8
256,192,10421,1,8
256,192,10500,1,8
256,192,10578,1,8
256,192,10736,1,8
256,192,10815,1,8
256,192,10894,1,0
256,192,11368,1,0
256,192,11447,1,0
256,192,11526,1,0
256,192,11684,1,0
256,192,11842,1,8
256,192,12000,1,0
256,192,12078,1,0
256,192,12157,1,0
256,192,12315,1,8
256,192,12631,1,0
256,192,12947,1,0
256,192,13026,1,0
256,192,13105,1,0
256,192,13184,1,0
256,192,13263,1,0
256,192,13342,1,0
256,192,13421,1,8
256,192,13578,1,0
256,192,13894,1,8
256,192,14210,1,0
256,192,14684,1,0
256,192,14763,1,0
256,192,14842,1,0
256,192,14921,1,0
256,192,15000,1,8
256,192,15315,1,8
256,192,15394,1,8
256,192,15473,1,8
256,192,15789,1,0
256,192,15868,1,0
256,192,15947,1,0
256,192,16105,1,0
256,192,16421,1,0
256,192,16500,1,0
256,192,16578,1,0
256,192,16736,1,0
256,192,16894,1,0
256,192,17052,1,0
256,192,17131,1,0
256,192,17210,1,0
256,192,17368,1,8
256,192,17684,1,0
256,192,18000,1,8
256,192,18078,1,0
256,192,18157,1,0
256,192,18236,1,0
256,192,18315,1,8
256,192,18394,1,0
256,192,18473,1,0
256,192,18552,1,0
256,192,18631,1,8
256,192,18710,1,0
256,192,18789,1,0
256,192,18868,1,0
256,192,18947,1,8
256,192,19026,1,0
256,192,19105,1,0
256,192,19184,1,0
256,192,19263,1,0
256,192,19342,1,0
256,192,19421,1,8
256,192,19736,1,8
256,192,19894,1,0
256,192,19973,1,0
256,192,20052,1,0
256,192,20210,1,8
256,192,20526,1,8
256,192,20763,1,8
256,192,20842,1,8
256,192,21000,1,0
256,192,21315,1,0
256,192,21394,1,0
256,192,21473,1,0
256,192,21552,1,8
256,192,21631,1,0
256,192,21789,1,0
256,192,21868,1,0
256,192,21947,1,0
256,192,22263,1,0
256,192,22342,1,0
256,192,22421,1,0
256,192,22736,1,0
256,192,22815,1,0
256,192,22894,1,0
256,192,23052,1,0
256,192,23210,1,8
256,192,23368,1,8
256,192,23447,1,8
256,192,23526,1,8
256,192,23684,1,0
256,192,24000,1,8
256,192,24078,1,8
256,192,24157,1,8
256,192,24394,1,8
256,192,24473,1,8
256,192,24789,1,8
256,192,24947,1,0
256,192,25421,1,0
256,192,25500,1,0
256,192,25578,1,0
256,192,25736,1,8
256,192,25973,1,8
256,192,26052,1,8
256,192,26210,1,8
256,192,26684,1,8
256,192,26842,1,0
256,192,27157,1,0
256,192,27473,1,0
256,192,27552,1,0
256,192,27631,1,0
256,192,27789,1,0
256,192,27947,1,8
256,192,28105,1,8
256,192,28184,1,0
256,192,28263,1,8
256,192,28342,1,0
256,192,28421,1,0
256,192,28578,1,8
256,192,29052,1,8
256,192,29131,1,8
256,192,29210,1,0
256,192,29447,1,8
256,192,29526,1,8
256,192,29763,1,8
256,192,29842,1,0
256,192,30000,1,8
256,192,30315,1,0
256,192,30394,1,0
256,192,30473,1,8
256,192,30552,1,0
256,192,30631,1,0
256,192,30789,1,0
256,192,30947,1,0
256,192,31026,1,0
256,192,31105,1,8
256,192,31263,1,0
256,192,31421,1,8
256,192,31578,1,0
256,192,31657,1,0
256,192,31736,1,0
256,192,31894,1,8
256,192,32526,1,0
256,192,32605,1,0
256,192,32684,1,0
256,192,32842,1,0
256,192,33000,1,0
256,192,33315,1,8
256,192,33631,1,0
256,192,33710,1,0
256,192,33789,1,0
256,192,33947,1,8
256,192,34421,1,0
256,192,34500,1,0
256,192,34578,1,8
256,192,34736,1,8
256,192,35052,1,8
256,192,35368,1,8
256,192,35447,1,8
256,192,35526,1,8
256,192,35684,1,8
256,192,35999,1,8
256,192,36157,1,0
256,192,36315,1,0
256,192,36473,1,0
256,192,36631,1,8
256,192,36710,1,0
256,192,36789,1,0
256,192,36947,1,0
256,192,37421,1,0
256,192,37578,1,0
256,192,37657,1,0
256,192,37736,1,8
256,192,37894,1,8
256,192,38052,1,8
256,192,38210,1,8
256,192,38368,1,8
256,192,38525,1,0
256,192,38684,1,0
256,192,38763,1,0
256,192,38841,1,0
256,192,38921,1,0
256,192,39000,1,0
256,192,39078,1,0
256,192,39157,1,0
256,192,39473,1,0
256,192,39552,1,0
256,192,39631,1,8
256,192,39789,1,8
256,192,40105,1,8
256,192,40184,1,0
256,192,40263,1,0
256,192,40421,1,0
256,192,40736,1,0
256,192,40815,1,0
256,192,41052,1,0
256,192,41210,1,0
256,192,41368,1,0
256,192,41447,1,0
256,192,41526,1,0
256,192,41684,1,8
256,192,41842,1,8
256,192,41921,1,0
256,192,42000,1,8
256,192,42157,1,0
256,192,42631,1,0
256,192,42710,1,0
256,192,42789,1,0
256,192,42947,1,0
256,192,43105,1,0
256,192,43421,1,8
256,192,43500,1,8
256,192,43578,1,8
256,192,43657,1,8
256,192,43736,1,0
256,192,43894,1,0
256,192,43973,1,0
256,192,44052,1,8
256,192,44526,1,0
256,192,44605,1,0
256,192,44684,1,8
256,192,44842,1,8
256,192,45157,1,8
256,192,45473,1,8
256,192,45552,1,8
256,192,45631,1,8
256,192,45789,1,8
256,192,46105,1,8
256,192,46184,1,8
256,192,46263,1,0
256,192,46421,1,8
256,192,46578,1,0
256,192,46736,1,0
256,192,46815,1,8
256,192,46894,1,0
256,192,47052,1,0
256,192,47210,1,0
256,192,47368,1,0
256,192,47447,1,8
256,192,47526,1,0
256,192,47684,1,0
256,192,47842,1,8
256,192,48000,1,0
256,192,48157,1,0
256,192,48315,1,0
256,192,48473,1,0
256,192,48552,1,0
256,192,48631,1,0
256,192,48789,1,0
256,192,48947,1,8
256,192,49026,1,8
256,192,49105,1,0
256,192,49184,1,8
256,192,49263,1,8
256,192,49421,1,8
256,192,49578,1,8
256,192,49736,1,8
256,192,49815,1,8
256,192,49894,1,8
256,192,50210,1,8
256,192,50526,1,8
256,192,50605,1,8
256,192,50684,1,8
256,192,50842,1,8
256,192,51157,1,0
256,192,51473,1,0
256,192,51789,1,0
256,192,52105,1,8
256,192,52184,1,8
256,192,52263,1,8
256,192,52421,1,0
256,192,52579,1,8
256,192,52737,1,0
256,192,52894,1,0
256,192,53526,1,8
256,192,53605,1,0
256,192,53684,1,0
256,192,53763,1,0
256,192,53842,1,8
256,192,53921,1,0
256,192,54000,1,0
256,192,54078,1,0
256,192,54157,1,8
256,192,54631,1,0
256,192,54710,1,0
256,192,54789,1,8
256,192,54947,1,0
256,192,55263,1,0
256,192,55578,1,0
256,192,55657,1,0
256,192,55736,1,8
256,192,56052,1,8
256,192,56131,1,8
256,192,56210,1,8
256,192,56289,1,8
256,192,56368,1,0
256,192,56447,1,8
256,192,56526,1,8
256,192,56605,1,8
256,192,56684,1,0
256,192,56763,1,8
256,192,56842,1,8
256,192,57157,1,8
256,192,57236,1,0
256,192,57315,1,0
256,192,57473,1,0
256,192,57552,1,0
256,192,57631,1,8
256,192,57789,1,0
256,192,57947,1,0
256,192,58105,1,0
256,192,58184,1,0
256,192,58263,1,8
256,192,58421,1,8
256,192,58578,1,8
256,192,58894,1,8
256,192,58973,1,0
256,192,59052,1,0
256,192,59210,1,8
256,192,59684,1,0
256,192,59763,1,0
256,192,59842,1,8
256,192,60000,1,0
256,192,60157,1,0
256,192,60236,1,0
256,192,60315,1,0
256,192,60631,1,0
256,192,60710,1,0
256,192,60789,1,8
256,192,60947,1,8
256,192,61105,1,0
256,192,61263,1,8
256,192,61342,1,0
256,192,61421,1,0
256,192,61500,1,0
256,192,61579,1,8
256,192,61657,1,0
256,192,61736,1,0
256,192,61815,1,0
256,192,61894,1,8
256,192,61973,1,0
256,192,62052,1,8
256,192,62368,1,0
256,192,62447,1,0
256,192,62526,1,0
256,192,62605,1,0
256,192,62684,1,0
256,192,62763,1,0
256,192,62842,1,8
256,192,62921,1,0
256,192,63000,1,0
256,192,63078,1,0
256,192,63157,1,0
256,192,63236,1,0
256,192,63315,1,8
256,192,63473,1,0
256,192,63789,1,0
256,192,63868,1,0
256,192,63947,1,0
256,192,64105,1,8
256,192,64263,1,0
256,192,64342,1,0
256,192,64420,1,0
256,192,64578,1,8
256,192,64736,1,0
256,192,65052,1,8
256,192,65131,1,8
256,192,65210,1,8
256,192,65289,1,8
256,192,65368,1,8
256,192,65526,1,0
256,192,65684,1,8
256,192,66000,1,8
256,192,66315,1,8
256,192,66394,1,8
256,192,66473,1,0
256,192,66947,1,0
256,192,67026,1,0
256,192,67105,1,0
256,192,67263,1,0
256,192,67421,1,8
256,192,67578,1,0
256,192,67657,1,0
256,192,67736,1,0
256,192,67894,1,8
256,192,68210,1,0
256,192,68289,1,0
256,192,68368,1,0
256,192,68526,1,8
256,192,68842,1,8
256,192,68921,1,8
256,192,69000,1,0
256,192,69157,1,0
256,192,69473,1,8
256,192,69552,1,8
256,192,69631,1,8
256,192,69789,1,0
256,192,70105,1,0
256,192,70184,1,0
256,192,70263,1,0
256,192,70421,1,0
256,192,70500,1,0
256,192,70578,1,8
256,192,70657,1,8
256,192,70736,1,8
256,192,70894,1,0
256,192,71052,1,8
256,192,71368,1,8
256,192,71447,1,8
256,192,71526,1,0
256,192,71842,1,0
256,192,71921,1,0
256,192,72000,1,0
256,192,72157,1,0
256,192,72473,1,8
256,192,72552,1,8
256,192,72631,1,0
256,192,72947,1,0
256,192,73026,1,0
256,192,73105,1,8
256,192,73421,1,0
256,192,73500,1,0
256,192,73578,1,8
256,192,73736,1,0
256,192,73894,1,0
256,192,73973,1,0
256,192,74052,1,8
256,192,74210,1,0
256,192,74368,1,0
256,192,74447,1,0
256,192,74526,1,0
256,192,74684,1,8
256,192,75000,1,8
256,192,75078,1,8
256,192,75157,1,8
256,192,75315,1,8
256,192,75631,1,0
256,192,75710,1,8
256,192,75947,1,8
256,192,76026,1,8
256,192,76105,1,8
256,192,76421,1,8
256,192,76500,1,8
256,192,76578,1,0
256,192,76894,1,0
256,192,76973,1,0
256,192,77052,1,0
256,192,77210,1,8
256,192,77368,1,0
256,192,77447,1,0
256,192,77526,1,0
256,192,77842,1,8
256,192,77921,1,8
256,192,78000,1,8
256,192,78157,1,8
256,192,78236,1,8
256,192,78315,1,8
256,192,78473,1,8
256,192,78552,1,0
256,192,78631,1,0
256,192,78789,1,8
256,192,79105,1,8
256,192,79184,1,8
256,192,79263,1,8
256,192,79736,1,8
256,192,79815,1,0
256,192,79894,1,0
256,192,80052,1,0
256,192,80368,1,8
256,192,80447,1,8
256,192,80526,1,8
256,192,80684,1,0
256,192,81000,1,0
256,192,81078,1,0
256,192,81157,1,0
256,192,81315,1,8
256,192,81394,1,8
256,192,81473,1,8
256,192,81631,1,8
256,192,81789,1,8
256,192,82105,1,8
256,192,82184,1,8
256,192,82263,1,8
256,192,82421,1,0
256,192,82894,1,0
256,192,82973,1,0
256,192,83052,1,0
256,192,83210,1,0
256,192,83368,1,0
256,192,83447,1,0
256,192,83526,1,8
256,192,83842,1,8
256,192,83921,1,8
256,192,84000,1,0
256,192,84157,1,8
256,192,84236,1,8
256,192,84315,1,0
256,192,84631,1,8
256,192,84710,1,8
256,192,84789,1,0
256,192,84947,1,8
256,192,85263,1,0
256,192,85342,1,0
256,192,85421,1,0
256,192,85578,1,0
256,192,85736,1,0
256,192,85815,1,0
256,192,85894,1,8
256,192,86210,1,0
256,192,86289,1,0
256,192,86368,1,8
256,192,86684,1,8
256,192,86763,1,8
256,192,86842,1,0
256,192,87000,1,0
256,192,87157,1,8
256,192,87236,1,8
256,192,87315,1,8
256,192,87552,1,0
256,192,87631,1,8
256,192,87789,1,0
256,192,88105,1,8
256,192,88263,1,0
256,192,88421,1,8
256,192,88500,1,8
256,192,88578,1,8
