osu file format v5

[General]
AudioFilename: gundamwingop.mp3
AudioLeadIn: 0
PreviewTime: -1
Countdown: 1
SampleSet: Soft
StackLeniency: 0.7
Mode: 0
LetterboxInBreaks: 1
EditorBookmarks: 5410,12682,34274,63365

[Metadata]
Title:Just Communication
Artist:Gundam Wing (German)
Creator:AgentSieg
Version:Easy
Source:
Tags:

[Difficulty]
HPDrainRate:4
CircleSize:2
OverallDifficulty:3
SliderMultiplier:1.4
SliderTickRate:1

[Events]
//Background and Video events
1,0,"Gundam Wing OP.flv"
//Break Periods
2,27433,32838
2,47884,51697
2,54474,62150
//Storyboard Layer 0 (Background)
//Storyboard Layer 1 (Failing)
//Storyboard Layer 2 (Passing)
//Storyboard Layer 3 (Foreground)
//Storyboard Sound Samples
//Background Colour Transformations
3,100,163,162,255

[TimingPoints]
5420,454.456864591746,4,2,0,100

[HitObjects]
256,192,5420,1,2
96,320,6783,5,2
416,320,8601,5,2
96,96,12691,5,0
160,192,13145,1,0
224,96,13600,1,0
384,160,14281,6,2,B|320:320|320:320|256:288|256:288|192:320|192:320|128:128,1,490
64,64,16326,5,0
160,128,16781,1,0
256,64,17235,1,0
352,120,17690,5,0
352,232,18144,1,0
240,232,18599,1,0
128,232,19053,2,2,B|128:136,1,70
192,32,19962,6,2,B|352:32,1,140
352,96,20644,1,2
352,160,20871,1,2
256,224,21325,5,0
128,224,21780,1,0
128,96,22234,1,0
224,96,22689,2,0,B|320:96,2,70
288,192,23598,5,0
160,192,24052,1,0
128,128,24279,1,0
192,128,24507,2,0,B|352:128,1,140
256,192,25188,12,4,27233
88,96,34278,5,2
144,96,34505,1,2
256,96,34959,2,2,B|352:96|320:96,2,70
296,200,35868,6,0,B|200:200,3,70
112,200,37004,1,0
264,264,37686,5,2
320,264,37913,2,2,B|416:264,3,70
352,216,38822,5,0
320,168,39049,2,0,B|256:40,1,140
200,40,39731,1,0
144,40,39958,2,0,B|18:43|176:168,3,140
192,216,41776,5,2
192,48,42458,2,2,B|288:48|256:48,2,70
264,136,43367,6,0,B|136:136|168:136,3,70
136,136,44276,2,0,B|83:40|192:-16,1,140
256,192,45639,12,6,47684
256,320,53137,5,0
352,320,53592,1,0
416,224,54046,1,0
416,160,54274,1,4
96,96,63590,5,0
160,192,64044,1,0
224,96,64499,1,0
384,128,65181,6,2,B|320:288|320:288|256:256|256:256|192:288|192:288|128:96,1,490
24,112,67226,5,0
80,208,67680,1,0
136,112,68135,1,0
248,112,68589,6,0,B|88:208|120:336,1,210
232,272,69725,2,0,B|232:112,1,140
72,72,70861,6,2,B|90:331|90:331|199:199|199:199|288:325|288:325|360:40,1,840
256,192,75633,12,0,78133
