osu file format v10

[General]
AudioFilename: Card Captor Sakura - OP 1 Catch You Catch Me.mp3
AudioLeadIn: 2000
PreviewTime: 45375
Countdown: 0
SampleSet: None
StackLeniency: 0.7
Mode: 0
LetterboxInBreaks: 0

[Editor]
DistanceSpacing: 0.8
BeatDivisor: 4
GridSize: 4

[Metadata]
Title:Catch You Catch Me (TV Size)
TitleUnicode:Catch You Catch Me (TV Size)
Artist:Gumi
ArtistUnicode:Gumi
Creator:IceBeam
Version:Cake!
Source:Cardcaptor Sakura
Tags:
BeatmapID:194115
BeatmapSetID:66553

[Difficulty]
HPDrainRate:7
CircleSize:4
OverallDifficulty:7
ApproachRate:8
SliderMultiplier:1.6
SliderTickRate:1

[Events]
//Background and Video events
0,0,"Konachan.com - 71987 card_captor_sakura kinomoto_sakura seifuku.jpg"
//Break Periods
//Storyboard Layer 0 (Background)
//Storyboard Layer 1 (Fail)
//Storyboard Layer 2 (Pass)
//Storyboard Layer 3 (Foreground)
//Storyboard Sound Samples
//Background Colour Transformations
3,100,163,162,255

[TimingPoints]
375,468.75,4,1,0,35,1,0
375,-133.333333333333,4,1,0,35,0,0
960,-133.333333333333,4,2,0,35,0,0
1664,-133.333333333333,4,1,0,35,0,0
1898,-133.333333333333,4,2,0,35,0,0
2132,-133.333333333333,4,1,0,35,0,0
2835,-133.333333333333,4,2,0,35,0,0
3539,-133.333333333333,4,1,0,35,0,0
3773,-133.333333333333,4,2,0,35,0,0
4007,-133.333333333333,4,1,0,35,0,0
4736,-133.333333333333,4,2,0,35,0,0
5414,-133.333333333333,4,1,0,35,0,0
5765,-100,4,1,0,45,0,0
7875,-100,4,1,0,55,0,0
15375,-100,4,1,0,45,0,0
15492,-100,4,2,0,45,0,0
15726,-100,4,1,0,45,0,0
15960,-100,4,2,0,45,0,0
16664,-100,4,1,0,45,0,0
16898,-100,4,2,0,45,0,0
17132,-100,4,1,0,45,0,0
17367,-100,4,2,0,45,0,0
17601,-100,4,1,0,45,0,0
17835,-100,4,2,0,45,0,0
18539,-100,4,1,0,45,0,0
18773,-100,4,2,0,45,0,0
19007,-100,4,1,0,45,0,0
19242,-100,4,2,0,45,0,0
19476,-100,4,1,0,45,0,0
19710,-100,4,2,0,45,0,0
20414,-100,4,1,0,45,0,0
20648,-100,4,2,0,45,0,0
20882,-100,4,1,0,45,0,0
23460,-100,4,2,0,45,0,0
24164,-100,4,1,0,45,0,0
24398,-100,4,2,0,45,0,0
24632,-100,4,1,0,45,0,0
25335,-100,4,2,0,45,0,0
26039,-100,4,1,0,45,0,0
26273,-100,4,2,0,45,0,0
26625,-100,4,1,0,45,0,0
27210,-100,4,2,0,45,0,0
27914,-100,4,1,0,45,0,0
28148,-100,4,2,0,45,0,0
28382,-100,4,1,0,45,0,0
30492,-100,4,2,0,45,0,0
30726,-100,4,1,0,45,0,0
30960,-100,4,2,0,45,0,0
31664,-100,4,1,0,45,0,0
31898,-100,4,2,0,45,0,0
32132,-100,4,1,0,45,0,0
32367,-100,4,2,0,45,0,0
32601,-100,4,1,0,45,0,0
32835,-100,4,2,0,45,0,0
33539,-100,4,1,0,45,0,0
33773,-100,4,2,0,45,0,0
34007,-100,4,1,0,45,0,0
34242,-100,4,2,0,45,0,0
34476,-100,4,1,0,45,0,0
34710,-100,4,2,0,45,0,0
35414,-100,4,1,0,45,0,0
35648,-100,4,2,0,45,0,0
36000,-100,4,1,0,45,0,0
37054,-100,4,2,0,45,0,0
37289,-100,4,1,0,45,0,0
37523,-100,4,2,0,45,0,0
37757,-100,4,1,0,45,0,0
37992,-100,4,2,0,45,0,0
38226,-100,4,1,0,45,0,0
38929,-100,4,2,0,45,0,0
39164,-100,4,1,0,45,0,0
39867,-100,4,2,0,45,0,0
40101,-100,4,1,0,45,0,0
40804,-100,4,2,0,45,0,0
41039,-100,4,1,0,45,0,0
41273,-100,4,2,0,45,0,0
41507,-100,4,1,0,45,0,0
41742,-100,4,2,0,25,0,0
41976,-100,4,1,0,45,0,0
42210,-100,4,2,0,30,0,0
42445,-100,4,1,0,45,0,0
42679,-100,4,2,0,35,0,0
42914,-100,4,1,0,45,0,0
43148,-100,4,2,0,40,0,0
43382,-100,4,1,0,45,0,0
43617,-100,4,2,0,45,0,0
43851,-100,4,1,0,45,0,0
44085,-100,4,2,0,50,0,0
44320,-100,4,1,0,45,0,0
45375,-100,4,1,0,55,0,1
49242,-100,4,2,0,55,0,1
49476,-100,4,1,0,55,0,1
49710,-100,4,2,0,55,0,1
49945,-100,4,1,0,55,0,1
50179,-100,4,2,0,55,0,1
50414,-100,4,1,0,55,0,1
50648,-100,4,2,0,55,0,1
50882,-100,4,1,0,55,0,1
51117,-100,4,2,0,55,0,1
51468,-100,4,1,0,55,0,1
51585,-100,4,2,0,55,0,1
51820,-100,4,1,0,55,0,1
52054,-100,4,2,0,55,0,1
52289,-100,4,1,0,55,0,1
52523,-100,4,2,0,55,0,0
52875,-100,4,1,0,55,0,1
56742,-100,4,2,0,55,0,1
57093,-100,4,1,0,55,0,1
57210,-100,4,2,0,55,0,1
57445,-100,4,1,0,55,0,1
57679,-100,4,2,0,55,0,1
58031,-100,4,1,0,55,0,1
58148,-100,4,2,0,55,0,1
58500,-100,4,1,0,55,0,1
58617,-100,4,2,0,55,0,1
58851,-100,4,1,0,55,0,1
59085,-100,4,2,0,55,0,1
59320,-100,4,1,0,55,0,1
59554,-100,4,2,0,55,0,1
59789,-100,4,1,0,55,0,1
64125,-100,4,1,0,45,0,0
72328,-100,4,2,0,5,0,0

[Colours]
Combo1 : 200,216,109
Combo2 : 242,209,111
Combo3 : 235,5,74

[HitObjects]
164,40,375,1,4,0:0:0
388,72,843,1,0,0:0:0
376,148,1078,1,0,0:0:0
316,324,1546,1,0,0:0:0
236,320,1781,1,0,0:0:0
152,316,2015,1,0,0:0:0
156,320,2718,5,0,0:0:0
100,248,2953,2,0,P|112:192|100:108,1,120.000004577637
88,52,3656,1,0,0:0:0
88,52,3890,1,0,0:0:0
304,32,4593,5,0,0:0:0
368,88,4828,2,0,P|384:148|368:212,1,120.000004577637
424,268,5531,1,0,0:0:0
432,280,5765,5,0,0:0:0
256,192,6234,1,0,0:0:0
80,280,6703,1,0,0:0:0
176,328,6937,2,0,P|184:360,4,20
272,284,7406,1,0,0:0:0
372,308,7640,1,0,0:0:0
392,312,7757,1,0,0:0:0
408,316,7875,6,0,P|456:308|488:308,1,80,4|0,0:0|0:0,0:0:0
428,212,8343,2,0,P|444:156|444:80,1,120,8|0,0:0|0:0,0:0:0
412,88,8812,2,0,P|404:48|404:-4,1,80
300,100,9281,1,8,0:0:0
300,100,9515,2,0,P|316:172|308:260,1,160
384,312,10218,1,8,0:0:0
384,312,10453,2,0,P|308:300|220:304,1,160
128,336,11156,1,8,0:0:0
100,240,11390,1,0,0:0:0
104,224,11507,1,0,0:0:0
108,208,11625,6,0,P|96:172|100:128,1,80
256,180,12093,2,0,P|268:216|264:260,1,80,8|0,0:0|0:0,0:0:0
200,96,12562,1,0,0:0:0
288,80,12796,1,0,0:0:0
376,68,13031,1,8,0:0:0
456,152,13265,2,0,P|444:228|412:304,1,160,0|0,0:0|0:0,0:0:0
320,344,13968,1,8,0:0:0
228,304,14203,2,0,P|152:280|156:320|64:296,1,160,0|8,0:0|0:0,0:0:0
24,208,14906,1,8,0:0:0
80,128,15140,1,0,0:0:0
100,136,15257,1,0,0:0:0
124,144,15375,6,0,P|116:104|120:68|120:64,1,80,4|2,0:0|0:0,0:0:0
232,172,15843,1,0,0:0:0
232,172,16078,2,0,P|248:244|232:336,1,160,2|2,0:0|0:0,0:0:0
240,332,16781,2,0,P|292:324|328:324,1,80,0|2,0:0|0:0,0:0:0
416,200,17250,2,0,P|324:212,1,80,0|2,0:0|0:0,0:0:0
232,172,17718,1,0,0:0:0
128,212,17953,2,0,P|100:140|96:56,1,160,2|2,0:0|0:0,0:0:0
104,60,18656,2,0,P|56:52|20:52,1,80,0|2,0:0|0:0,0:0:0
216,44,19125,6,0,P|264:52|300:52,1,80,0|2,0:0|0:0,0:0:0
400,32,19593,1,0,0:0:0
452,132,19828,2,0,P|464:220|412:280,1,160,2|2,0:0|0:0,0:0:0
308,268,20531,2,0,P|316:312|332:356,1,80,0|2,0:0|0:0,0:0:0
364,184,21000,2,0,P|292:168|204:168,1,160
108,188,21703,1,0,0:0:0
112,192,22171,1,0,0:0:0
60,96,22406,1,0,0:0:0
144,32,22640,1,0,0:0:0
164,36,22757,1,0,0:0:0
184,40,22875,6,0,P|256:28|348:32,1,160
412,112,23578,2,0,P|388:192|388:192|408:272,1,160,2|2,0:0|0:0,0:0:0
416,280,24281,1,0,0:0:0
328,280,24515,1,2,0:0:0
240,276,24750,2,0,P|160:280|76:300,1,160
64,200,25453,2,0,P|72:160|52:136|52:136|72:88|40:32,1,160,2|2,0:0|0:0,0:0:0
64,48,26156,1,0,0:0:0
160,36,26390,1,2,0:0:0
176,48,26507,1,0,0:0:0
192,60,26625,6,0,P|252:28|352:44,1,160
440,104,27328,2,0,P|380:136|280:120,1,160,2|2,0:0|0:0,0:0:0
192,156,28031,1,0,0:0:0
200,244,28265,1,2,0:0:0
208,332,28500,1,0,0:0:0
120,288,28734,1,0,0:0:0
200,244,28968,1,0,0:0:0
288,280,29203,1,0,0:0:0
300,292,29320,1,0,0:0:0
388,256,29554,1,0,0:0:0
400,264,29671,1,0,0:0:0
488,296,29906,1,0,0:0:0
488,296,30023,1,0,0:0:0
488,296,30140,1,0,0:0:0
444,156,30375,6,0,P|452:112|452:68,1,80,4|2,0:0|0:0,0:0:0
300,144,30843,2,0,P|304:192|312:232,1,80,8|2,0:0|0:0,0:0:0
296,244,31195,2,0,P|236:232|160:240,1,120,0|2,0:0|0:0,0:0:0
92,276,31781,1,8,0:0:0
92,276,31898,1,0,0:0:0
92,276,32015,1,2,0:0:0
40,160,32250,2,0,P|36:120|32:80,1,80,0|2,0:0|0:0,0:0:0
176,128,32718,2,0,P|172:168|168:208,1,80,8|2,0:0|0:0,0:0:0
184,236,33070,2,0,P|244:224|320:236,1,120,0|2,0:0|0:0,0:0:0
396,272,33656,1,8,0:0:0
396,272,33773,1,0,0:0:0
396,272,33890,1,2,0:0:0
424,136,34125,6,0,P|432:104|440:56,1,80,0|2,0:0|0:0,0:0:0
288,80,34593,1,8,0:0:0
288,80,34828,2,0,P|288:156|312:252,1,160,2|2,0:0|0:0,0:0:0
280,336,35531,1,8,0:0:0
188,280,35765,1,2,0:0:0
176,264,35882,1,0,0:0:0
164,248,36000,2,0,P|-12:264,2,160,0|8|0,0:0|0:0|0:0,0:0:0
244,168,37171,1,2,0:0:0
340,156,37406,1,8,0:0:0
352,256,37640,1,2,0:0:0
256,264,37875,5,4,0:0:0
244,168,38109,1,2,0:0:0
232,76,38343,1,8,0:0:0
64,244,38813,1,0,0:0:0
48,344,39047,1,2,0:0:0
148,312,39281,1,8,0:0:0
432,156,39750,1,0,0:0:0
448,260,39984,1,2,0:0:0
348,224,40218,1,8,0:0:0
72,56,40687,1,0,0:0:0
172,44,40921,1,2,0:0:0
80,80,41156,1,8,0:0:0
180,64,41390,1,2,0:0:0
372,152,41625,6,0,P|412:148|456:132,1,80,0|4,0:0|0:0,0:0:0
276,224,42093,2,0,P|264:272|268:332,1,80,0|4,0:0|0:0,0:0:0
188,144,42562,2,0,P|184:96|176:48,1,80,0|4,0:0|0:0,0:0:0
104,212,43031,2,0,P|64:212|20:224,1,80,0|4,0:0|0:0,0:0:0
100,332,43500,5,0,0:0:0
192,320,43734,1,4,0:0:0
286,308,43968,1,0,0:0:0
376,296,44203,1,4,0:0:0
435,194,44437,1,0,0:0:0
437,178,44554,1,0,0:0:0
437,162,44671,1,0,0:0:0
437,145,44789,1,0,0:0:0
435,128,44906,1,0,0:0:0
432,112,45023,1,0,0:0:0
428,96,45140,1,0,0:0:0
422,78,45257,1,0,0:0:0
414,64,45375,6,0,P|371:67|328:75,1,80,4|0,0:0|0:0,0:0:0
215,31,45843,2,0,P|209:80|210:127,1,80,8|0,0:0|0:0,0:0:0
92,135,46312,2,0,P|105:177|141:223,1,80,0|0,0:0|0:0,0:0:0
72,312,46781,2,0,P|120:320|176:320,1,80,8|0,0:0|0:0,0:0:0
252,280,47250,1,0,0:0:0
352,312,47484,1,0,0:0:0
260,288,47718,2,0,P|280:232|292:140,1,120,8|8,0:0|0:0,0:0:0
268,168,48187,2,0,P|260:124|260:68,1,80,0|0,0:0|0:0,0:0:0
352,40,48656,1,8,0:0:0
352,40,48773,1,0,0:0:0
352,40,48890,1,0,0:0:0
144,32,49125,6,0,P|152:76|152:124,1,80,0|2,0:0|0:0,0:0:0
48,168,49593,2,0,P|40:128|40:80,1,80,0|2,0:0|0:0,0:0:0
144,216,50062,1,0,0:0:0
236,204,50296,1,2,0:0:0
204,292,50531,1,0,0:0:0
296,280,50765,1,2,0:0:0
412,320,51000,1,0,0:0:0
416,296,51117,1,0,0:0:0
416,272,51234,1,2,0:0:0
413,249,51351,1,0,0:0:0
415,228,51468,2,0,P|407:184|404:140,1,80,0|2,0:0|0:0,0:0:0
272,92,51937,2,0,P|272:136|266:184,1,80,0|2,0:0|0:0,0:0:0
272,312,52406,1,0,0:0:0
251,306,52523,1,0,0:0:0
227,301,52640,1,2,0:0:0
202,300,52757,1,0,0:0:0
180,305,52875,6,0,P|168:268|164:208,1,80,4|0,0:0|0:0,0:0:0
40,252,53343,2,0,P|40:208|56:160,1,80,8|0,0:0|0:0,0:0:0
24,68,53812,2,0,P|60:44|104:36,1,80,0|0,0:0|0:0,0:0:0
228,52,54281,2,0,P|268:48|316:36,1,80,8|0,0:0|0:0,0:0:0
392,116,54750,1,0,0:0:0
492,80,54984,1,0,0:0:0
400,124,55218,2,0,P|404:192|388:272,1,120,8|8,0:0|0:0,0:0:0
360,264,55687,2,0,P|368:320|376:368,1,80
476,336,56156,1,8,0:0:0
476,336,56273,1,0,0:0:0
476,336,56390,1,0,0:0:0
304,188,56625,5,0,0:0:0
276,178,56742,1,0,0:0:0
247,177,56859,1,2,0:0:0
222,184,56976,1,0,0:0:0
196,199,57093,1,0,0:0:0
147,289,57328,1,2,0:0:0
82,162,57562,1,0,0:0:0
90,132,57679,1,0,0:0:0
90,103,57796,1,2,0:0:0
84,76,57914,1,0,0:0:0
74,52,58031,1,0,0:0:0
228,52,58265,1,2,0:0:0
246,52,58382,1,0,0:0:0
264,56,58500,2,0,P|304:48|344:48,1,80,0|2,0:0|0:0,0:0:0
200,196,58968,2,0,P|160:204|120:204,1,80,0|2,0:0|0:0,0:0:0
288,308,59437,2,0,P|328:300|368:300,1,80,0|2,0:0|0:0,0:0:0
472,296,59906,1,0,0:0:0
452,192,60140,6,0,P|472:116|468:16,1,160,4|0,0:0|0:0,0:0:0
356,76,60843,2,0,P|304:80|248:100,1,80,0|0,0:0|0:0,0:0:0
272,120,61195,2,0,P|212:112|128:116,1,120,0|0,0:0|0:0,0:0:0
56,180,61781,1,0,0:0:0
76,268,62015,1,4,0:0:0
84,276,62484,1,4,0:0:0
92,284,62953,1,4,0:0:0
204,316,63187,2,0,P|208:344,4,20
296,264,63656,1,0,0:0:0
407,287,63890,1,0,0:0:0
408,268,64007,1,0,0:0:0
402,253,64125,6,0,P|407:214|402:157,1,80,4|0,0:0|0:0,0:0:0
444,64,64593,2,0,P|363:65|284:85,1,160,8|0,0:0|0:0,0:0:0
180,128,65296,1,0,0:0:0
84,92,65531,1,8,0:0:0
184,136,65765,2,0,P|192:208|216:308,1,160
144,352,66468,1,8,0:0:0
144,352,66703,2,0,P|216:320|324:336,1,160
396,348,67406,1,8,0:0:0
452,276,67640,1,0,0:0:0
455,251,67757,1,0,0:0:0
456,226,67875,6,0,P|447:179|444:132,1,80,0|0,0:0|0:0,0:0:0
352,88,68343,2,0,P|320:80|288:52|288:52|260:72|204:56,1,160,8|0,0:0|0:0,0:0:0
104,128,69046,1,0,0:0:0
60,44,69281,1,8,0:0:0
112,136,69515,2,0,P|124:212|160:292,1,160
256,332,70218,2,0,P|300:324|348:324,1,80,8|0,0:0|0:0,0:0:0
424,272,70687,2,0,P|448:280,4,20
368,180,71156,1,8,0:0:0
416,92,71390,1,8,0:0:0
412,76,71507,1,0,0:0:0
408,56,71625,1,0,0:0:0
288,48,71859,2,0,P|280:24,4,20,0|0|0|0|4,0:0|0:0|0:0|0:0|0:0,0:0:0
256,192,72328,12,2,77250,0:0:0
