osu file format v10

[General]
AudioFilename: Card Captor Sakura - OP 1 Catch You Catch Me.mp3
AudioLeadIn: 2000
PreviewTime: 45375
Countdown: 0
SampleSet: Soft
StackLeniency: 0.7
Mode: 0
LetterboxInBreaks: 0

[Editor]
DistanceSpacing: 1
BeatDivisor: 2
GridSize: 4

[Metadata]
Title:Catch You Catch Me (TV Size)
TitleUnicode:Catch You Catch Me (TV Size)
Artist:Gumi
ArtistUnicode:Gumi
Creator:[Yue]
Version:Normal
Source:Cardcaptor Sakura
Tags:Megumi Hinata CCS SCC Magical Girl Cardcaptors Shoujo Shojo Opening eLtigreXXx XinCrin Verdisphena
BeatmapID:171100
BeatmapSetID:56469

[Difficulty]
HPDrainRate:3
CircleSize:3
OverallDifficulty:3
ApproachRate:5
SliderMultiplier:1.2
SliderTickRate:1

[Events]
//Background and Video events
0,0,"Sakura BG.png"
Video,-2600,"Cardcaptor Sakura Opening 1.avi"
//Break Periods
//Storyboard Layer 0 (Background)
//Storyboard Layer 1 (Fail)
//Storyboard Layer 2 (Pass)
//Storyboard Layer 3 (Foreground)
//Storyboard Sound Samples
//Background Colour Transformations
3,100,163,162,255

[TimingPoints]
375,468.75,4,2,0,65,1,0
7757,-100,4,2,0,50,0,0
7992,-100,4,2,0,65,0,0
13148,-100,4,2,0,50,0,0
14789,-100,4,2,0,75,0,0
15257,-100,4,2,0,50,0,0
15492,-100,4,2,0,75,0,0
17132,-100,4,2,0,50,0,0
17367,-100,4,2,0,75,0,0
19007,-100,4,2,0,50,0,0
19242,-100,4,2,0,75,0,0
22640,-100,4,2,0,50,0,0
23109,-100,4,2,0,75,0,0
24515,-100,4,2,0,50,0,0
24984,-100,4,2,0,75,0,0
26507,-100,4,2,0,50,0,0
26742,-100,4,2,0,75,0,0
30140,-100,4,2,0,50,0,0
30609,-100,4,2,0,75,0,0
32015,-100,4,2,0,50,0,0
32484,-100,4,2,0,75,0,0
37757,-100,4,2,0,50,0,0
37992,-100,4,2,0,75,0,0
39632,-100,4,2,0,50,0,0
39867,-100,4,2,0,75,0,0
45375,-100,4,2,0,65,0,1
52406,-100,4,2,0,65,0,0
52875,-100,4,2,0,65,0,1
56507,-100,4,2,0,50,0,1
56742,-100,4,2,0,65,0,1
60023,-100,4,2,0,50,0,1
60257,-100,4,2,0,65,0,1
61898,-100,4,2,0,50,0,1
64007,-100,4,2,0,65,0,1
64125,-100,4,2,0,65,0,0
64593,-100,4,2,0,65,0,0
69398,-100,4,2,0,50,0,0
70570,-100,4,2,0,65,0,0
73031,-100,4,2,0,55,0,0
73968,-100,4,2,0,35,0,0
74906,-100,4,2,0,25,0,0
75843,-100,4,2,0,15,0,0
76781,-100,4,2,0,5,0,0

[Colours]
Combo1 : 255,23,23
Combo2 : 255,166,168
Combo3 : 166,0,83

[HitObjects]
64,96,375,5,4,0:0:0
260,116,1078,2,0,B|280:56|356:56,1,120,2|0,0:0|0:0,0:0:0
348,188,2015,1,2,0:0:0
96,260,2953,5,2,0:0:0
60,132,3421,1,0,0:0:0
180,80,3890,1,2,0:0:0
216,340,4828,6,0,B|280:324|304:256,1,120,2|0,0:0|0:0,0:0:0
416,200,5765,2,0,B|480:184|480:112,2,120,4|0|0,0:0|0:0|0:0,0:0:0
292,152,7171,1,0,0:0:0
272,88,7406,1,0,0:0:0
224,44,7640,1,2,0:0:0
172,88,7875,6,0,B|52:88,1,120,4|0,0:0|0:0,0:0:0
48,220,8812,2,0,B|92:264,1,60,2|0,0:0|0:0,0:0:0
92,328,9281,2,0,B|156:328,1,60,2|0,0:0|0:0,0:0:0
212,208,9984,6,0,B|212:144,2,60,0|2|0,0:0|0:0|0:0,0:0:0
332,264,10921,2,0,B|388:288,2,60,0|2|0,0:0|0:0|0:0,0:0:0
452,208,11859,6,0,B|452:148,1,60,0|2,0:0|0:0,0:0:0
320,136,12562,2,0,B|248:136|208:88,1,120,0|2,0:0|0:0,0:0:0
145,92,13265,5,4,0:0:0
60,192,13734,1,4,0:0:0
156,280,14203,1,4,0:0:0
284,316,14671,1,4,0:0:0
328,268,14906,6,0,B|368:252|380:220,1,60,2|0,0:0|0:0,0:0:0
368,164,15375,2,0,B|272:84,1,120,4|2,0:0|0:0,0:0:0
208,84,16078,1,0,0:0:0
56,212,16781,5,2,0:0:0
96,268,17015,1,0,0:0:0
160,292,17250,2,0,B|224:292|224:292|280:252,1,120,4|2,0:0|0:0,0:0:0
320,300,17953,1,0,0:0:0
432,132,18656,5,2,0:0:0
368,140,18890,1,0,0:0:0
304,148,19125,2,0,B|304:36|192:36,1,180,4|0,0:0|0:0,0:0:0
88,204,20531,5,2,0:0:0
192,284,21000,2,0,B|312:340,1,120,2|0,0:0|0:0,0:0:0
352,300,21703,1,2,0:0:0
440,124,22406,6,0,B|392:84|392:84|336:84,1,120,2|4,0:0|0:0,0:0:0
200,76,23343,1,2,0:0:0
88,148,23812,2,0,B|108:216|168:232,1,120,0|2,0:0|0:0,0:0:0
276,304,24750,5,4,0:0:0
372,216,25218,1,2,0:0:0
332,92,25687,1,0,0:0:0
204,64,26156,6,0,B|173:52|144:65,2,60,2|0|4,0:0|0:0|0:0,0:0:0
180,192,27093,2,0,B|180:320,2,120,2|0|2,0:0|0:0|0:0,0:0:0
280,104,28500,1,2,0:0:0
400,48,28968,2,0,B|442:90,1,60,0|2,0:0|0:0,0:0:0
432,288,29906,5,2,0:0:0
304,320,30375,1,4,0:0:0
172,308,30843,2,0,B|100:292|88:228,1,120,2|0,0:0|0:0,0:0:0
204,168,31781,5,2,0:0:0
104,84,32250,1,4,0:0:0
232,60,32718,2,0,B|296:72|328:132,1,120,2|0,0:0|0:0,0:0:0
312,260,33656,6,0,B|256:284|256:284|192:284,2,120,2|0|2,0:0|0:0|0:0,0:0:0
376,280,34828,2,0,B|444:264|464:192,1,120
412,160,35531,1,2,0:0:0
348,148,35765,1,0,0:0:0
296,108,36000,6,0,B|232:88|168:112,1,120,0|2,0:0|0:0,0:0:0
88,204,36937,2,0,B|116:264|184:264,1,120,0|2,0:0|0:0,0:0:0
316,256,37875,5,6,0:0:0
372,216,38109,1,0,0:0:0
436,216,38343,1,2,0:0:0
412,88,38812,2,0,B|348:64,2,60,0|0|2,0:0|0:0|0:0,0:0:0
292,148,39750,5,6,0:0:0
228,148,39984,1,0,0:0:0
172,124,40218,1,2,0:0:0
108,236,40687,2,0,B|148:284,2,60,0|0|2,0:0|0:0|0:0,0:0:0
256,192,41625,12,2,43500,0:0:0
144,248,44906,6,0,B|120:192,1,60,2|0,0:0|0:0,0:0:0
88,136,45375,2,0,B|128:88,1,60,4|0,0:0|0:0,0:0:0
176,48,45843,2,0,B|240:48,1,60,8|0,0:0|0:0,0:0:0
304,56,46312,1,0,0:0:0
352,96,46546,1,0,0:0:0
408,128,46781,2,0,B|408:192,1,60,8|0,0:0|0:0,0:0:0
416,252,47250,6,0,B|368:284|308:230|308:230|248:284|200:252,1,240,2|0,0:0|0:0,0:0:0
80,320,48656,1,8,0:0:0
128,200,49125,5,2,0:0:0
256,176,49593,1,8,0:0:0
204,56,50062,1,2,0:0:0
336,40,50531,1,8,0:0:0
464,72,51000,2,0,B|476:100|468:132,2,60,0|0|8,0:0|0:0|0:0,0:0:0
352,140,51937,1,0,0:0:0
424,248,52406,1,8,0:0:0
320,328,52875,6,0,B|256:328,1,60,4|0,0:0|0:0,0:0:0
196,328,53343,2,0,B|148:288,1,60,8|0,0:0|0:0,0:0:0
100,244,53812,2,0,B|100:180,1,60,0|0,0:0|0:0,0:0:0
100,116,54281,1,8,0:0:0
160,84,54515,1,0,0:0:0
224,100,54750,6,0,B|272:132|332:78|332:78|392:132|440:100,1,240,2|0,0:0|0:0,0:0:0
440,232,56156,1,8,0:0:0
308,240,56625,6,0,B|308:304|308:304|264:344,2,120,4|8|2,0:0|0:0|0:0,0:0:0
176,240,58031,2,0,B|176:176|176:176|220:136,2,120,8|2|8,0:0|0:0|0:0,0:0:0
56,296,59437,1,2,0:0:0
28,236,59671,1,0,0:0:0
44,172,59906,1,8,0:0:0
84,120,60140,6,0,B|116:40|188:40|188:40|228:40,1,180,4|8,0:0|0:0,0:0:0
192,168,61312,2,0,B|232:228|292:228,1,120,0|8,0:0|0:0,0:0:0
352,252,62015,5,4,0:0:0
256,344,62484,1,4,0:0:0
132,304,62953,1,4,0:0:0
56,196,63421,1,4,0:0:0
100,72,63890,1,4,0:0:0
296,56,64593,6,0,B|368:48|408:104,1,120,8|0,0:0|0:0,0:0:0
444,224,65531,2,0,B|396:272,1,60,8|0,0:0|0:0,0:0:0
272,280,66234,2,0,B|224:328,2,60,0|8|0,0:0|0:0|0:0,0:0:0
236,152,67171,2,0,B|172:152,2,60,0|8|0,0:0|0:0|0:0,0:0:0
340,68,68109,1,0,0:0:0
376,124,68343,6,0,B|424:172,1,60,8|0,0:0|0:0,0:0:0
418,232,68812,2,0,B|370:280,1,60,2|0,0:0|0:0,0:0:0
312,292,69281,1,8,0:0:0
248,292,69515,5,4,0:0:0
160,192,69984,2,0,B|96:176|72:104,2,120,4|4|2,0:0|0:0|0:0,0:0:0
76,292,71390,1,4,0:0:0
256,192,72093,12,0,77250,0:0:0
