osu file format v10

[General]
AudioFilename: Card Captor Sakura - OP 1 Catch You Catch Me.mp3
AudioLeadIn: 2000
PreviewTime: 45375
Countdown: 0
SampleSet: Soft
StackLeniency: 0.7
Mode: 0
LetterboxInBreaks: 0

[Editor]
DistanceSpacing: 1
BeatDivisor: 2
GridSize: 4

[Metadata]
Title:Catch You Catch Me (TV Size)
TitleUnicode:Catch You Catch Me (TV Size)
Artist:Gumi
ArtistUnicode:Gumi
Creator:[Yue]
Version:Easy
Source:Cardcaptor Sakura
Tags:Megumi Hinata CCS SCC Magical Girl Cardcaptors Shoujo Shojo Opening eLtigreXXx XinCrin Verdisphena
BeatmapID:170726
BeatmapSetID:56469

[Difficulty]
HPDrainRate:2
CircleSize:3
OverallDifficulty:2
ApproachRate:3
SliderMultiplier:0.8
SliderTickRate:1

[Events]
//Background and Video events
0,0,"Sakura BG.png"
Video,-2600,"Cardcaptor Sakura Opening 1.avi"
//Break Periods
//Storyboard Layer 0 (Background)
//Storyboard Layer 1 (Fail)
//Storyboard Layer 2 (Pass)
//Storyboard Layer 3 (Foreground)
//Storyboard Sound Samples
//Background Colour Transformations
3,100,163,162,255

[TimingPoints]
375,468.75,4,2,0,65,1,0
5531,-100,4,2,0,50,0,0
6000,-100,4,2,0,65,0,0
7640,-100,4,2,0,50,0,0
8109,-100,4,2,0,65,0,0
15140,-100,4,2,0,50,0,0
15609,-100,4,2,0,75,0,0
21468,-100,4,2,0,50,0,0
21937,-100,4,2,0,75,0,0
22640,-100,4,2,0,50,0,0
23109,-100,4,2,0,75,0,0
24515,-100,4,2,0,50,0,0
24984,-100,4,2,0,75,0,0
26390,-100,4,2,0,50,0,0
26859,-100,4,2,0,75,0,0
30140,-100,4,2,0,50,0,0
30609,-100,4,2,0,75,0,0
33890,-100,4,2,0,50,0,0
34359,-100,4,2,0,75,0,0
37640,-100,4,2,0,50,0,0
38109,-100,4,2,0,75,0,0
39515,-100,4,2,0,50,0,0
39984,-100,4,2,0,75,0,0
45375,-100,4,2,0,65,0,1
48890,-100,4,2,0,50,0,1
49359,-100,4,2,0,65,0,1
50765,-100,4,2,0,50,0,1
51234,-100,4,2,0,65,0,1
52406,-100,4,2,0,65,0,0
52875,-100,4,2,0,65,0,1
56390,-100,4,2,0,50,0,1
56859,-100,4,2,0,65,0,1
59906,-100,4,2,0,50,0,1
60375,-100,4,2,0,65,0,1
61781,-100,4,2,0,50,0,1
62250,-100,4,2,0,65,0,1
62718,-100,4,2,0,50,0,1
63187,-100,4,2,0,65,0,1
63773,-100,4,2,0,50,0,1
64007,-100,4,2,0,65,0,1
64125,-100,4,2,0,65,0,0
64359,-100,4,2,0,50,0,0
64828,-100,4,2,0,65,0,0
73031,-100,4,2,0,55,0,0
73968,-100,4,2,0,35,0,0
74906,-100,4,2,0,25,0,0
75843,-100,4,2,0,15,0,0
76781,-100,4,2,0,5,0,0

[Colours]
Combo1 : 255,23,23
Combo2 : 255,166,168
Combo3 : 166,0,83

[HitObjects]
120,336,375,6,0,B|40:336|40:256,1,120,4|2,0:0|0:0,0:0:0
68,192,1546,2,0,B|148:192,1,80,0|2,0:0|0:0,0:0:0
292,124,2953,6,0,B|292:44,2,80,2|0|2,0:0|0:0|0:0,0:0:0
436,192,4828,2,0,B|436:288|336:288,1,160,2|4,0:0|0:0,0:0:0
256,292,6234,2,0,B|184:279|184:184|231:184|279:184|279:86|206:76,1,280,0|4,0:0|0:0,0:0:0
128,80,8343,5,2,0:0:0
76,140,8812,1,0,0:0:0
56,216,9281,1,2,0:0:0
128,252,9750,2,0,B|128:356|232:372|336:356|336:252,1,320,0|2,0:0|0:0,0:0:0
400,200,12093,5,2,0:0:0
412,120,12562,1,0,0:0:0
332,124,13031,2,0,B|332:20|228:4|124:20|124:124,1,320,2|0,0:0|0:0,0:0:0
132,204,15375,6,0,B|188:260,1,80,4|2,0:0|0:0,0:0:0
340,312,16781,2,0,B|384:304|412:264,2,80,2|0|2,0:0|0:0|0:0,0:0:0
308,240,18187,2,0,B|264:232|236:192,1,80,0|2,0:0|0:0,0:0:0
160,200,19125,6,0,B|78:226|37:302,1,160
108,336,20531,1,2,0:0:0
188,340,21000,2,0,B|249:320|279:265,1,120,0|4,0:0|0:0,0:0:0
232,156,22406,5,2,0:0:0
308,132,22875,2,0,B|352:124|364:76,2,80,4|2|0,0:0|0:0|0:0,0:0:0
304,212,24281,1,2,0:0:0
376,244,24750,2,0,B|452:244|452:324,1,120,4|2,0:0|0:0,0:0:0
332,328,26156,5,2,0:0:0
252,320,26625,1,4,0:0:0
180,284,27093,2,0,B|127:252|127:185|183:151,1,160,2|2,0:0|0:0,0:0:0
180,72,28500,2,0,B|239:54|299:72,1,120,2|2,0:0|0:0,0:0:0
408,120,29906,5,2,0:0:0
420,200,30375,2,0,B|436:240|474:256,2,80,4|2|0,0:0|0:0|0:0,0:0:0
340,200,31781,2,0,B|324:240|286:256,2,80,2|0|2,0:0|0:0|0:0,0:0:0
288,140,33187,1,0,0:0:0
208,148,33656,1,2,0:0:0
184,224,34125,6,0,B|140:240|96:224,2,80,4|2|0,0:0|0:0|0:0,0:0:0
224,296,35531,1,2,0:0:0
304,304,36000,1,0,0:0:0
368,256,36468,1,2,0:0:0
424,200,36937,2,0,B|426:158|395:125,1,80,0|2,0:0|0:0,0:0:0
320,104,37875,6,0,B|275:102|255:62,2,80,4|2|0,0:0|0:0|0:0,0:0:0
356,176,39281,1,2,0:0:0
312,244,39750,2,0,B|296:280|258:302,2,80,4|2|0,0:0|0:0|0:0,0:0:0
356,176,41156,1,2,0:0:0
256,192,41625,12,2,43500,0:0:0
40,64,44906,6,0,B|96:120,1,80,2|4,0:0|0:0,0:0:0
148,184,45843,1,8,0:0:0
196,120,46312,2,0,B|252:64,1,80,0|8,0:0|0:0,0:0:0
332,64,47250,2,0,B|380:64|420:96|420:192|380:232|332:232,1,240,2|8,0:0|0:0,0:0:0
256,224,49125,5,4,0:0:0
228,300,49593,1,8,0:0:0
148,312,50062,1,0,0:0:0
96,252,50531,1,8,0:0:0
88,172,51000,2,0,B|72:112|120:64|184:80,1,160,4|0,0:0|0:0,0:0:0
252,116,52406,1,8,0:0:0
320,72,52875,6,0,B|352:44|400:40,1,80,4|8,0:0|0:0,0:0:0
444,100,53812,1,0,0:0:0
452,180,54281,1,8,0:0:0
408,248,54750,2,0,B|372:331|287:354|207:313,1,240,2|8,0:0|0:0,0:0:0
132,284,56625,5,4,0:0:0
88,216,57093,1,8,0:0:0
100,136,57562,1,0,0:0:0
152,76,58031,2,0,B|192:60|236:76,1,80,8|0,0:0|0:0,0:0:0
292,124,58968,2,0,B|336:84|384:115|384:115|432:148|480:124,2,200,8|4|0,0:0|0:0|0:0,0:0:0
176,160,62015,6,0,B|196:196|232:216,1,80,4|0,0:0|0:0,0:0:0
312,220,62953,2,0,B|352:236|400:220,1,80,4|0,0:0|0:0,0:0:0
464,256,63890,2,0,P|444:292,1,40,4|0,0:0|0:0,0:0:0
384,344,64593,5,12,0:0:0
304,344,65062,2,0,B|264:328|212:328,1,80,0|8,0:0|0:0,0:0:0
164,280,66000,1,0,0:0:0
96,236,66468,2,0,B|40:236|40:292,2,80,8|0|8,0:0|0:0|0:0,0:0:0
132,164,67875,5,2,0:0:0
184,104,68343,1,8,0:0:0
264,96,68812,1,0,0:0:0
340,120,69281,2,0,B|404:112|448:160,1,120,8|4,0:0|0:0,0:0:0
400,224,70453,2,0,B|388:264|352:292,1,80,4|2,0:0|0:0,0:0:0
276,304,71390,1,4,0:0:0
256,192,72093,12,0,77250,0:0:0
