osu file format v5

[General]
AudioFilename: Card_Captor_Sakura_-_Catch_You_Catch_Me.mp3
AudioLeadIn: 0
PreviewTime: 54049
Countdown: 1
SampleSet: Soft
StackLeniency: 0.7
Mode: 0
LetterboxInBreaks: 1
EditorBookmarks: 8580,23345,52174

[Metadata]
Title:Catch You Catch Me
Artist:Gumi
Creator:JarJarJacob
Version:Kodomo
Source:Card Captor Sakura
Tags:Card Captor Sakura Magical Girl Cardcaptors Shoujo Shojo

[Difficulty]
HPDrainRate:4
CircleSize:4
OverallDifficulty:4
SliderMultiplier:1.2
SliderTickRate:1

[Events]
//Background and Video events
1,6282,"d9d2fa99acabff642d075a1a4fdd37f3.avi"
0,0,"1zettai_800.jpg"
//Break Periods
2,9013,22999
//Storyboard Layer 0 (Background)
//Storyboard Layer 1 (Failing)
//Storyboard Layer 2 (Passing)
//Storyboard Layer 3 (Foreground)
//Storyboard Sound Samples
//Background Colour Transformations
3,100,0,0,0

[TimingPoints]
1549,468.75,4,2,0,100,1

[Colours]
Combo1 : 255,255,128
Combo2 : 255,255,255
Combo3 : 255,128,255
Combo4 : 240,5,5

[HitObjects]
32,160,1549,5,2
448,160,3189,1,2
256,32,4127,2,0,B|256:320,1,240,0|2
32,192,6002,5,0
256,192,6939,2,8,B|416:192,3,120
480,192,8814,1,8
64,192,24049,6,0,B|256:192,1,180,0|2
448,32,25924,2,0,B|448:224,1,180,0|2
192,352,27799,1,0
0,352,28502,1,2
256,32,29674,2,2,B|256:224,1,180,2|4
480,192,31549,6,0,B|288:192,1,180,0|2
0,192,33424,2,0,B|192:192,1,180,0|2
448,32,35299,1,4
32,64,36002,6,0,B|224:64,1,180
320,64,37174,1,2
320,256,37877,1,2
160,160,38580,6,2,B|544:160,1,360,2|8
480,288,40455,2,2,B|96:288,1,360,2|8
192,64,42799,2,0,B|416:64,1,180,0|2
480,352,44674,5,4
352,352,45142,1,4
224,352,45611,1,4
96,352,46080,1,4
128,96,47017,5,2
352,96,47955,1,2
352,320,48892,1,2
224,320,49361,2,2,B|64:320,1,120
256,192,50299,12,0,52174
64,192,54049,5,2
192,192,54517,1,2
320,192,54986,1,2
448,192,55455,1,2
448,64,55924,2,2,B|32:64,1,360,2|4
160,192,57799,6,8,B|288:192,2,120
256,288,59205,1,0
480,288,60142,1,2
352,288,60611,1,2
256,320,61549,6,2,B|256:192,1,120
256,64,62486,2,2,B|416:64,1,120
384,192,63424,2,2,B|0:192,1,360,2|4
64,64,65299,5,2
192,64,65767,1,4
320,64,66236,1,2
448,64,66705,1,4
448,192,67174,1,2
320,192,67642,1,2
192,192,68111,1,2
64,192,68580,6,2,B|0:384|512:384|448:192,1,540,2|12
448,96,71158,1,12
320,96,71627,1,12
192,96,72095,1,12
64,96,72564,1,12
