osu file format v5

[General]
AudioFilename: Carnival Day.mp3
AudioLeadIn: 0
PreviewTime: -1
Countdown: 1
SampleSet: Normal

[Metadata]
Title:Carnival Day
Artist:Guitar Freaks 4th Mix & Drummania 3rd Mix
Creator:James
Version:Normal

[Difficulty]
HPDrainRate:5
CircleSize:4
OverallDifficulty:5
SliderMultiplier:2
SliderTickRate:4

[Events]
//Background and Video events
0,0,"carnival.jpg"
//Break Periods
2,55454,66621
//Storyboard Layer 0 (Background)
//Storyboard Layer 1 (Failing)
//Storyboard Layer 2 (Passing)
//Storyboard Layer 3 (Foreground)
//Storyboard Sound Samples
//Background Colour Transformations
3,100,255,255,255

[TimingPoints]
120,405.399499513481,4,1,0,80

[HitObjects]
48,344,14308,1,0
48,344,14511,1,0
48,344,14714,1,0
96,208,15119,2,0,B|122:132|197:84|267:110|352:168,1,300
464,232,16133,1,2
464,232,16335,2,2,B|396:316|256:208,2,200
464,88,17552,5,0
464,88,17754,1,0
464,88,17957,1,0
328,48,18362,2,0,B|218:1|96:60|120:200,1,300
120,312,19376,1,2
120,312,19579,2,2,B|251:320|232:144,2,200
256,312,20795,5,0
256,312,20998,1,0
256,312,21200,1,0
304,176,21606,2,0,B|247:140|176:200,5,100
144,192,22822,2,2,B|129:118|218:89|304:96,2,200
280,192,24038,5,0
280,192,24241,1,0
280,192,24443,1,0
256,192,24849,12,4,26876
264,192,27281,1,2
120,192,27687,1,0
120,48,28092,1,2
256,48,28497,1,0
392,48,28903,1,2
392,184,29308,1,0
392,320,29714,1,2
248,320,30119,1,2
248,320,30322,1,2
248,320,30524,1,2
104,320,30930,5,0
104,176,31335,1,2
248,176,31741,1,0
384,176,32146,1,2
384,32,32551,1,2
384,32,32754,1,2
384,32,32957,1,2
384,32,33160,1,2
384,32,33362,1,2
240,32,33768,5,0
240,32,33970,1,0
240,32,34173,1,0
112,88,34578,2,0,B|48:113|27:187|64:238|200:296,1,300
328,336,35592,1,2
328,336,35795,2,2,B|355:248|200:176,2,200
464,336,37011,5,0
464,336,37214,1,0
464,336,37416,1,0
432,200,37822,2,0,B|384:88|264:72|200:88|160:120,1,300
56,160,38835,1,2
56,160,39038,2,2,B|100:235|177:231|248:200,2,200
336,192,40659,5,0
336,192,40862,1,0
336,192,41065,1,2
192,192,41470,1,0
192,192,41673,1,0
192,192,41876,1,2
192,48,42281,5,0
192,48,42484,1,0
192,48,42686,1,0
48,48,43092,1,0
48,48,43295,1,0
48,48,43497,1,2
48,184,43903,5,0
48,184,44105,1,0
48,184,44308,1,2
48,320,44713,1,0
48,320,44916,1,0
48,320,45119,1,2
184,320,45524,5,0
184,320,45727,1,0
184,320,45930,1,2
320,320,46335,1,0
320,320,46538,1,0
320,320,46740,1,2
456,320,47146,5,0
456,184,47551,1,2
456,48,47957,5,0
456,48,48159,1,0
456,48,48362,1,2
320,48,48767,1,0
320,48,48970,1,0
320,48,49173,1,2
184,48,49578,5,0
184,48,49781,1,0
184,48,49984,1,2
48,48,50389,1,0
48,48,50592,1,0
48,48,50794,1,2
48,184,51200,6,2,B|488:184,1,400
440,320,52416,5,0
440,320,52619,1,2
296,320,53024,1,0
296,320,53227,1,2
152,328,53632,1,0
144,184,54038,5,2
144,184,54240,1,0
144,184,54443,1,2
280,184,54848,1,0
416,184,55254,1,6
464,240,67821,5,0
464,240,68024,1,0
464,240,68227,1,0
400,112,68632,2,0,B|374:36|299:-12|229:14|144:72,1,300
32,136,69646,1,2
32,136,69848,2,2,B|100:220|240:112,2,200
160,80,71065,5,0
160,80,71267,1,0
160,80,71470,1,0
288,32,71875,2,0,B|399:-4|496:64|464:208,1,300
456,328,72889,1,2
456,328,73092,2,2,B|326:310|352:160,2,200
312,328,74308,5,0
312,328,74511,1,0
312,328,74713,1,0
168,328,75119,2,0,B|32:328,5,100
64,264,76335,2,2,B|296:264,2,200
64,120,77551,5,0
64,120,77754,1,0
64,120,77956,1,0
200,120,78362,1,0
200,120,78564,1,0
200,120,78767,1,0
200,120,78970,1,0
200,120,79172,1,0
200,256,79578,2,2,B|320:256|416:256,2,200
400,64,81199,6,2,B|264:64|184:64,2,200
256,192,82821,12,4,84037
