osu file format v14

[General]
AudioFilename: Guixu - Ke Xi.mp3
AudioLeadIn: 0
PreviewTime: 58245
Countdown: 0
SampleSet: Soft
StackLeniency: 0.7
Mode: 0
LetterboxInBreaks: 0
WidescreenStoryboard: 0

[Editor]
DistanceSpacing: 1.5
BeatDivisor: 8
GridSize: 4
TimelineZoom: 1

[Metadata]
Title:Ke Xi
TitleUnicode:可惜
Artist:Gui Xu
ArtistUnicode:归墟
Creator:cmn_891127
Version:Normal
Source:古剑奇谭
Tags:Gujian Qitan, 小愛的媽, 唐龍, Tanglong, 胡寒, Megurine Luka
BeatmapID:681319
BeatmapSetID:303823

[Difficulty]
HPDrainRate:4
CircleSize:4
OverallDifficulty:4
ApproachRate:4
SliderMultiplier:1.2
SliderTickRate:1

[Events]
//Background and Video events
0,0,"BG.jpg",0,0
//Break Periods
//Storyboard Layer 0 (Background)
//Storyboard Layer 1 (Fail)
//Storyboard Layer 2 (Pass)
//Storyboard Layer 3 (Foreground)
//Storyboard Sound Samples
Sample,48507,0,"soft-hitclap.wav",50

[TimingPoints]
1940,895.522388059701,4,2,1,50,1,0

[Colours]
Combo1 : 220,120,120
Combo2 : 234,191,191
SliderBorder : 255,255,255

[HitObjects]
222,118,1940,6,0,P|190:106|158:107,2,60,8|0|0,0:0|0:0|0:0,0:0:0:0:
281,185,3283,2,0,L|293:212,2,30,0|0|0,0:0|0:0|0:0,0:0:0:0:
370,178,4178,2,0,P|411:177|468:122,1,120,0|0,0:0|0:0,0:0:0:0:
404,60,5522,2,0,P|377:62|339:57,1,60,8|0,0:0|0:0,0:0:0:0:
265,101,6417,2,0,P|224:94|202:97,1,60,0|0,0:0|0:0,0:0:0:0:
178,182,7313,2,0,P|227:203|292:183,1,120,0|0,0:0|0:0,0:0:0:0:
369,145,8656,5,0,0:0:0:0:
412,223,9104,2,0,P|417:246|410:289,2,60,8|0|0,0:0|0:0|0:0,0:0:0:0:
326,252,10447,2,0,L|303:287,2,30,0|0|0,0:0|0:0|0:0,0:0:0:0:
373,175,11342,2,0,P|383:131|377:105,1,60
353,30,12238,1,0,0:0:0:0:
293,97,12686,2,0,B|246:106|225:75|174:82,1,120,8|0,0:0|0:0,0:0:0:0:
201,168,14029,2,0,P|208:218|202:236,1,60
49,299,15372,6,0,B|90:295|117:316|176:300,1,120,0|8,0:0|0:0,0:0:0:0:
253,332,16716,2,0,B|294:328|321:349|380:333,1,120
455,300,18059,2,0,P|479:251|477:238,1,60,0|0,0:0|0:0,0:0:0:0:
372,102,19402,1,0,0:0:0:0:
295,149,19850,2,0,P|262:155|234:152,1,60,8|0,0:0|0:0,0:0:0:0:
177,221,20745,2,0,P|139:210|107:214,2,60
317,333,22537,6,0,B|332:281|295:258|311:209,1,120,0|8,0:0|0:0,0:0:0:0:
398,226,23880,2,0,P|394:183|379:163,1,60,0|0,0:0|0:0,0:0:0:0:
301,137,24775,2,0,P|254:143|240:141,1,60,0|0,0:0|0:0,0:0:0:0:
158,107,25671,1,0,0:0:0:0:
174,195,26119,2,0,B|183:238|154:264|165:318,1,120,0|8,0:0|0:0,0:0:0:0:
251,291,27462,2,0,P|293:289|316:296,1,60,0|0,0:0|0:0,0:0:0:0:
376,232,28357,2,0,P|400:237|437:234,1,60,0|0,0:0|0:0,0:0:0:0:
152,116,30596,6,0,P|121:108|92:111,1,60,10|0,0:0|0:0,0:0:0:0:
114,198,31492,2,0,P|80:199|59:206,2,45,0|0|0,0:0|0:0|0:0,0:0:0:0:
159,196,32387,2,0,B|203:207|222:182|277:191,1,120
359,230,33731,1,0,0:0:0:0:
447,216,34178,1,8,0:0:0:0:
494,139,34626,1,0,0:0:0:0:
451,59,35074,2,0,P|431:48|381:42,1,60,0|0,0:0|0:0,0:0:0:0:
312,78,35969,2,0,P|264:93|245:93,1,60
164,85,36865,1,0,0:0:0:0:
192,170,37313,6,0,L|201:202,2,30,0|0|10,0:0|0:0|0:0,0:0:0:0:
103,155,38208,1,0,0:0:0:0:
38,218,38656,2,0,P|11:233|-11:233,2,45
78,237,39551,2,0,P|117:228|146:232,1,60,0|0,0:0|0:0,0:0:0:0:
226,235,40447,2,0,P|270:242|292:237,1,60,0|0,0:0|0:0,0:0:0:0:
357,186,41342,2,0,B|396:183|427:199|486:184,1,120,8|0,0:0|0:0,0:0:0:0:
425,109,42686,2,0,P|466:106|491:93,1,60
346,138,44029,6,0,P|308:126|283:128,1,60,0|0,0:0|0:0,0:0:0:0:
213,177,44925,2,0,P|175:189|145:185,1,60,10|0,0:0|0:0,0:0:0:0:
168,98,45820,2,0,P|184:75|191:51,2,45,0|0|0,0:0|0:0|0:0,0:0:0:0:
134,128,46716,2,0,P|112:167|127:237,1,120,0|0,0:0|0:0,0:0:0:0:
202,188,48059,2,0,B|238:199|274:162|328:184,1,120
363,260,49402,2,0,P|334:270|305:270,1,60,0|0,0:0|0:0,0:0:0:0:
224,228,50298,2,0,P|181:196|111:197,1,120,0|0,0:0|0:0,0:0:0:0:
91,281,51641,2,0,P|128:286|158:275,1,60,0|10,0:0|0:0,0:0:0:0:
327,187,52984,6,0,P|355:176|375:174,2,45
294,218,53880,2,0,P|317:182|299:103,1,120,0|0,0:0|0:0,0:0:0:0:
229,158,55223,1,0,0:0:0:0:
141,177,55671,2,0,B|96:185|68:156|19:167,1,120,8|0,0:0|0:0,0:0:0:0:
43,253,57014,2,0,P|13:256|-14:247,1,60
89,193,59253,6,0,B|125:189|156:221|207:204,1,120,14|0,0:0|0:0,0:0:0:0:
288,166,60596,2,0,L|321:146,2,30
353,227,61492,2,0,P|406:229|420:235,1,60,0|0,0:0|0:0,0:0:0:0:
463,159,62387,2,0,P|493:160|526:153,1,60,0|8,0:0|0:0,0:0:0:0:
510,64,63283,2,0,P|459:72|390:64,1,120,0|0,0:0|0:0,0:0:0:0:
306,35,64626,1,0,0:0:0:0:
180,163,65522,6,0,P|212:160|247:166,1,60,0|0,0:0|0:0,0:0:0:0:
205,247,66417,2,0,B|147:256|119:229|83:236,1,120,10|0,0:0|0:0,0:0:0:0:
14,290,67760,2,0,L|-10:314,2,30
91,338,68656,2,0,P|138:338|162:347,1,60,0|0,0:0|0:0,0:0:0:0:
235,313,69551,2,0,P|281:323|306:318,1,60,0|8,0:0|0:0,0:0:0:0:
379,295,70447,2,0,P|439:302|492:258,1,120,0|0,0:0|0:0,0:0:0:0:
415,212,71790,1,0,0:0:0:0:
291,81,72686,6,0,L|278:115,1,30
241,132,73134,2,0,L|256:168,1,30
250,205,73581,2,0,P|254:247|245:272,1,60,10|0,0:0|0:0,0:0:0:0:
164,231,74477,1,0,0:0:0:0:
77,255,74925,2,0,P|73:213|82:188,1,60,0|0,0:0|0:0,0:0:0:0:
164,231,75820,1,0,0:0:0:0:
249,259,76268,2,0,B|285:266|328:245|369:252,1,120,0|8,0:0|0:0,0:0:0:0:
426,183,77611,2,0,P|466:184|493:177,2,60,0|0|0,0:0|0:0|0:0,0:0:0:0:
340,153,78954,1,0,0:0:0:0:
177,231,79850,6,0,L|166:193,1,30,0|0,0:0|0:0,0:0:0:0:
184,159,80298,2,0,L|193:118,1,30,0|0,0:0|0:0,0:0:0:0:
172,88,80745,2,0,P|211:96|240:89,1,60,10|0,0:0|0:0,0:0:0:0:
317,112,81641,2,0,P|347:105|377:106,1,60
410,189,82537,2,0,P|356:211|299:196,1,120
216,161,83880,2,0,L|174:148,1,30
176,196,84328,2,0,B|141:188|111:220|55:202,1,120,8|0,0:0|0:0,0:0:0:0:
42,114,85671,2,0,P|78:113|105:127,1,60,0|0,0:0|0:0,0:0:0:0:
274,77,87014,6,0,L|305:89,1,30
346,78,87462,2,0,L|373:92,1,30
415,80,87910,2,0,P|444:88|474:85,2,60,14|0|0,0:0|0:0|0:0,0:0:0:0:
372,160,89253,2,0,L|330:171,2,30
411,182,89925,2,0,B|430:184|464:210|497:195,1,90
479,283,91044,2,0,P|498:310|501:343,1,60,0|8,0:0|0:0,0:0:0:0:
412,339,91939,1,0,0:0:0:0:
336,289,92387,2,0,P|320:284|288:281,2,45
404,230,93507,2,0,P|447:226|487:193,1,90
413,140,94626,1,0,0:0:0:0:
337,89,95074,6,0,B|304:85|266:113|217:93,1,120,10|0,0:0|0:0,0:0:0:0:
130,67,96417,2,0,L|144:104,1,30,0|0,0:0|0:0,0:0:0:0:
127,138,96865,2,0,P|119:169|124:206,1,60,0|0,0:0|0:0,0:0:0:0:
182,263,97760,2,0,P|189:311|182:331,1,60
271,289,98656,2,0,B|306:287|333:313|390:304,1,120,8|0,0:0|0:0,0:0:0:0:
466,255,99999,2,0,P|494:246|524:249,1,60
418,115,101342,6,0,L|383:122,1,30
351,146,101790,2,0,L|308:142,1,30,0|0,0:0|0:0,0:0:0:0:
283,118,102238,2,0,P|263:124|220:122,1,60,10|0,0:0|0:0,0:0:0:0:
137,97,103134,1,0,0:0:0:0:
87,172,103581,2,0,L|125:178,1,30,0|0,0:0|0:0,0:0:0:0:
153,203,104029,2,0,B|188:196|226:214|274:203,1,120,0|0,0:0|0:0,0:0:0:0:
361,188,105372,2,0,L|389:167,1,30,0|0,0:0|0:0,0:0:0:0:
423,146,105820,2,0,P|398:189|419:259,1,120,8|0,0:0|0:0,0:0:0:0:
492,208,107163,2,0,P|506:242|503:264,1,60,0|0,0:0|0:0,0:0:0:0:
333,326,108507,6,0,L|366:318,1,30
388,282,108954,2,0,L|420:275,1,30
448,243,109402,2,0,P|416:240|386:224,1,60,10|0,0:0|0:0,0:0:0:0:
356,198,110074,1,0,0:0:0:0:
337,157,110298,2,0,P|310:167|278:166,1,60
237,152,110969,1,0,0:0:0:0:
198,128,111193,2,0,P|151:115|101:124,1,90
73,145,112089,2,0,P|97:152|124:177,1,60
145,213,112760,1,0,0:0:0:0:
180,241,112984,2,0,P|209:251|248:249,1,60,8|0,0:0|0:0,0:0:0:0:
310,304,113880,2,0,P|340:296|373:299,1,60
457,313,114775,1,0,0:0:0:0:
375,152,115671,6,0,P|325:156|278:139,1,90
249,122,116566,2,0,P|282:164|278:230,1,120,8|0,0:0|0:0,0:0:0:0:
196,196,117910,1,0,0:0:0:0:
117,239,118357,2,0,P|83:251|48:247,1,60,0|0,0:0|0:0,0:0:0:0:
73,160,119253,2,0,P|80:134|78:105,2,45,0|0|0,0:0|0:0|0:0,0:0:0:0:
47,196,120148,2,0,B|95:188|125:220|177:202,1,120,8|0,0:0|0:0,0:0:0:0:
256,192,121492,12,0,123731,0:0:0:0:
