osu file format v14

[General]
AudioFilename: Guixu - Ke Xi.mp3
AudioLeadIn: 0
PreviewTime: 58245
Countdown: 0
SampleSet: Soft
StackLeniency: 0.7
Mode: 0
LetterboxInBreaks: 0
WidescreenStoryboard: 0

[Editor]
DistanceSpacing: 1.5
BeatDivisor: 8
GridSize: 4
TimelineZoom: 1

[Metadata]
Title:Ke Xi
TitleUnicode:可惜
Artist:Gui Xu
ArtistUnicode:归墟
Creator:cmn_891127
Version:Hard
Source:古剑奇谭
Tags:Gujian Qitan, 小愛的媽, 唐龍, Tanglong, 胡寒, Megurine Luka
BeatmapID:680769
BeatmapSetID:303823

[Difficulty]
HPDrainRate:6
CircleSize:4.5
OverallDifficulty:6
ApproachRate:7
SliderMultiplier:1.2
SliderTickRate:1

[Events]
//Background and Video events
0,0,"BG.jpg",0,0
//Break Periods
//Storyboard Layer 0 (Background)
//Storyboard Layer 1 (Fail)
//Storyboard Layer 2 (Pass)
//Storyboard Layer 3 (Foreground)
//Storyboard Sound Samples

[TimingPoints]
1940,895.522388059701,4,2,1,50,1,0

[Colours]
Combo1 : 220,120,120
Combo2 : 234,191,191
SliderBorder : 255,255,255

[HitObjects]
288,91,1940,6,0,P|260:107|230:111,1,60,8|0,0:0|0:0,0:0:0:0:
92,204,2835,2,0,P|126:204|157:219,1,60
218,258,3507,1,0,0:0:0:0:
287,298,3731,2,0,P|317:305|346:304,1,60
388,88,5074,5,0,0:0:0:0:
314,133,5298,1,0,0:0:0:0:
292,142,5410,1,0,0:0:0:0:
269,145,5522,1,8,0:0:0:0:
452,218,5969,2,0,P|451:175|439:155,1,60
200,54,6865,2,0,P|186:84|187:118,1,60
49,269,8208,6,0,P|83:270|111:279,1,60
474,175,9104,2,0,P|441:169|410:171,1,60,8|0,0:0|0:0,0:0:0:0:
211,251,9999,2,0,P|247:255|275:243,1,60
342,214,10671,1,0,0:0:0:0:
297,144,10895,6,0,B|263:140|226:170|174:151,1,120
412,168,12238,2,0,P|423:199|423:225,1,60,0|8,0:0|0:0,0:0:0:0:
92,249,13134,2,0,P|85:278|90:308,1,60
321,163,14029,2,0,P|323:128|311:104,1,60
86,160,15372,5,0,0:0:0:0:
107,166,15484,1,0,0:0:0:0:
129,164,15596,1,0,0:0:0:0:
150,156,15708,1,0,0:0:0:0:
170,146,15820,2,0,P|199:137|234:140,1,60,0|8,0:0|0:0,0:0:0:0:
203,271,16716,2,0,B|240:266|277:288|323:274,1,120
395,243,17835,1,0,0:0:0:0:
434,175,18059,1,0,0:0:0:0:
424,91,18283,6,0,P|388:97|353:89,1,60
311,152,18954,2,0,P|281:142|240:146,1,60
83,320,19850,2,0,P|112:327|148:321,1,60,8|0,0:0|0:0,0:0:0:0:
388,263,20745,2,0,P|354:267|321:259,1,60
152,92,21641,1,0,0:0:0:0:
152,92,22537,5,0,0:0:0:0:
205,151,22760,1,0,0:0:0:0:
224,224,22984,1,0,0:0:0:0:
207,300,23208,1,0,0:0:0:0:
154,363,23432,2,0,P|188:350|219:351,1,60,8|0,0:0|0:0,0:0:0:0:
292,357,24104,1,0,0:0:0:0:
371,348,24328,2,0,P|401:343|431:326,1,60
487,276,24999,1,0,0:0:0:0:
409,249,25223,6,0,B|392:248|351:271|310:260,1,90
246,229,26119,2,0,P|223:222|185:221,1,60
105,241,26790,1,0,0:0:0:0:
133,162,27014,2,0,P|147:129|120:53,1,120,8|0,0:0|0:0,0:0:0:0:
246,229,28357,2,0,P|242:194|251:167,1,60
290,97,30596,6,0,P|254:114|224:113,1,60,10|0,0:0|0:0,0:0:0:0:
117,182,31268,1,0,0:0:0:0:
190,193,31492,2,0,P|218:198|234:208,2,45
62,265,32387,2,0,B|87:263|130:292|193:266,1,120
458,97,33731,6,0,P|424:112|395:111,1,60,0|8,0:0|0:0,0:0:0:0:
171,177,34626,2,0,B|209:171|253:189|298:176,1,120
81,251,35969,2,0,P|114:248|149:254,1,60
335,67,36865,2,0,P|295:78|275:75,1,60
152,67,37537,5,0,0:0:0:0:
170,85,37648,1,0,0:0:0:0:
181,110,37760,2,0,P|183:140|172:171,1,60,10|0,0:0|0:0,0:0:0:0:
425,287,38656,2,0,P|426:265|436:245,2,45
312,328,39551,1,0,0:0:0:0:
349,258,39775,2,0,P|349:218|309:174,1,90
90,114,40895,6,0,P|119:117|149:111,1,60,0|8,0:0|0:0,0:0:0:0:
253,335,41790,2,0,P|292:326|323:331,1,60
489,144,42686,2,0,P|456:147|421:142,1,60
245,72,43581,1,0,0:0:0:0:
97,255,44029,2,0,P|139:250|164:255,1,60
303,215,44701,5,0,0:0:0:0:
321,206,44813,1,0,0:0:0:0:
335,190,44925,2,0,P|347:149|343:128,1,60,10|0,0:0|0:0,0:0:0:0:
182,250,45820,2,0,P|204:250|226:255,2,45
359,302,46716,2,0,P|329:305|300:299,1,60
272,117,47611,6,0,P|305:120|338:113,1,60
210,181,48507,2,0,B|178:175|146:202|83:185,1,120,8|0,0:0|0:0,0:0:0:0:
272,232,49850,2,0,P|283:254|283:292,1,60
409,89,50745,2,0,P|398:121|401:150,1,60
344,355,51641,5,0,0:0:0:0:
404,310,51865,1,0,0:0:0:0:
412,300,51977,1,0,0:0:0:0:
417,287,52089,2,0,P|425:249|413:217,1,60,10|0,0:0|0:0,0:0:0:0:
124,157,52984,2,0,P|149:163|184:157,1,60
262,133,53656,1,0,0:0:0:0:
307,200,53880,6,0,P|315:223|309:259,1,60
333,90,54775,2,0,P|334:73|320:25,1,60
376,163,55671,1,8,0:0:0:0:
384,161,56119,2,0,B|421:159|444:186|504:169,1,120
360,84,57462,2,0,P|384:80|420:87,1,60
284,52,58357,6,0,P|256:67|227:70,1,60
292,147,59029,1,0,0:0:0:0:
306,141,59141,1,0,0:0:0:0:
319,138,59253,2,0,P|366:133|420:182,1,120,14|0,0:0|0:0,0:0:0:0:
431,329,60596,1,0,0:0:0:0:
374,277,60820,1,0,0:0:0:0:
351,205,61044,2,0,P|358:137|407:108,1,120
260,240,62387,6,0,P|228:250|196:246,1,60,0|8,0:0|0:0,0:0:0:0:
57,169,63283,2,0,B|101:166|135:183|185:170,1,120
326,54,64626,2,0,P|338:92|332:115,1,60
426,262,65522,2,0,P|416:285|418:323,1,60
393,170,66417,6,0,P|361:195|333:197,1,60,10|0,0:0|0:0,0:0:0:0:
159,309,67313,2,0,P|189:309|217:321,1,60
63,236,67984,1,0,0:0:0:0:
144,221,68208,2,0,B|187:218|219:237|268:226,1,120
449,112,69551,2,0,P|420:118|385:112,1,60,0|8,0:0|0:0,0:0:0:0:
294,362,70447,5,0,0:0:0:0:
334,301,70671,1,0,0:0:0:0:
345,225,70895,2,0,P|344:198|324:166,1,60
168,50,71790,2,0,P|170:87|157:118,1,60
64,235,72686,5,0,0:0:0:0:
144,217,72910,1,0,0:0:0:0:
225,236,73134,1,0,0:0:0:0:
292,296,73357,1,0,0:0:0:0:
368,343,73581,2,0,P|407:350|475:311,1,120,10|0,0:0|0:0,0:0:0:0:
339,121,74925,2,0,P|308:129|278:126,1,60
478,222,75820,6,0,P|438:216|412:220,1,60
217,261,76716,2,0,P|178:266|148:258,1,60,0|8,0:0|0:0,0:0:0:0:
57,118,77611,2,0,B|92:113|123:143|177:124,1,120
185,121,78954,1,0,0:0:0:0:
424,178,79850,5,0,0:0:0:0:
468,252,80074,1,0,0:0:0:0:
410,311,80298,1,0,0:0:0:0:
335,275,80522,1,0,0:0:0:0:
344,191,80745,2,0,P|341:156|323:127,1,60,10|0,0:0|0:0,0:0:0:0:
87,340,81641,2,0,P|86:306|95:283,1,60
247,194,82537,6,0,B|215:188|188:217|123:204,1,120
283,114,83880,2,0,P|315:119|345:113,1,60,0|8,0:0|0:0,0:0:0:0:
465,246,84775,2,0,P|439:212|367:202,1,120
359,207,86119,1,0,0:0:0:0:
88,142,87014,5,0,0:0:0:0:
168,118,87238,1,0,0:0:0:0:
194,199,87462,1,0,0:0:0:0:
112,223,87686,1,0,0:0:0:0:
68,294,87910,2,0,P|55:324|55:354,1,60,14|0,0:0|0:0,0:0:0:0:
281,219,88805,2,0,P|280:180|264:154,1,60
210,104,89477,1,0,0:0:0:0:
363,168,89701,5,0,0:0:0:0:
441,182,89925,2,0,P|480:178|519:147,1,90
292,215,91044,1,0,0:0:0:0:
225,274,91268,1,0,0:0:0:0:
228,296,91380,1,0,0:0:0:0:
230,318,91492,1,8,0:0:0:0:
345,147,91939,2,0,P|356:121|355:86,1,60
91,161,92835,5,0,0:0:0:0:
133,241,93059,2,0,P|130:264|113:298,2,60
183,165,94178,2,0,P|186:142|203:108,1,60
379,154,95074,2,0,P|332:179|269:166,1,120,10|0,0:0|0:0,0:0:0:0:
318,98,96193,5,0,0:0:0:0:
379,154,96417,1,0,0:0:0:0:
401,232,96641,1,0,0:0:0:0:
396,312,96865,2,0,P|392:344|376:372,1,60
71,267,97760,2,0,P|110:273|137:267,1,60
320,313,98656,2,0,B|276:307|234:334|191:317,1,120,8|0,0:0|0:0,0:0:0:0:
377,233,99999,2,0,P|384:211|377:175,1,60
130,98,101342,5,0,0:0:0:0:
202,143,101566,1,0,0:0:0:0:
187,219,101790,1,0,0:0:0:0:
107,227,102014,1,0,0:0:0:0:
71,159,102238,1,10,0:0:0:0:
264,238,102686,2,0,P|298:241|362:188,1,120
379,116,103805,1,0,0:0:0:0:
308,85,104029,2,0,P|288:78|249:78,1,60
133,290,104925,6,0,P|164:293|194:284,1,60
264,238,105596,1,0,0:0:0:0:
335,198,105820,2,0,P|368:189|395:192,1,60,8|0,0:0|0:0,0:0:0:0:
191,285,106716,2,0,P|180:257|183:217,1,60
350,69,107611,2,0,P|366:104|366:127,1,60
111,206,108507,5,0,0:0:0:0:
185,195,108731,1,0,0:0:0:0:
265,210,108954,1,0,0:0:0:0:
332,253,109178,1,0,0:0:0:0:
384,316,109402,1,10,0:0:0:0:
457,353,109626,2,0,P|495:358|517:352,1,60
474,253,110298,6,0,P|438:254|416:247,1,60
352,201,110969,1,0,0:0:0:0:
372,128,111193,2,0,P|374:97|363:71,1,60
271,90,111865,2,0,P|238:98|209:96,1,60
121,173,112537,2,0,P|152:174|185:183,1,60,0|8,0:0|0:0,0:0:0:0:
256,192,113432,12,0,115671,0:0:0:0:
172,135,116566,6,0,P|180:165|175:199,1,60,8|0,0:0|0:0,0:0:0:0:
172,135,118357,2,0,P|193:181|178:251,1,120
357,196,119701,2,0,P|327:194|299:202,1,60,0|8,0:0|0:0,0:0:0:0:
149,323,120596,2,0,P|183:326|210:320,1,60
256,192,121492,12,0,123731,0:0:0:0:
