osu file format v9

[General]
AudioFilename: 12 - Gooky - GOOD LUCKY!!!!!(Short ver.).mp3
AudioLeadIn: 2000
PreviewTime: 14075
Countdown: 0
SampleSet: Soft
StackLeniency: 0.4
Mode: 0
LetterboxInBreaks: 0

[Editor]
Bookmarks: 49292
DistanceSpacing: 0.6
BeatDivisor: 4
GridSize: 4

[Metadata]
Title:GOOD LUCKY!!!!! (Short Ver.)
Artist:Gucky
Creator:spboxer3
Version:Spinboxer
Source:
Tags:jubeat Becky GReeeeN bossandy Gamu

[Difficulty]
HPDrainRate:7
CircleSize:4
OverallDifficulty:7
ApproachRate:8
SliderMultiplier:1.8
SliderTickRate:1

[Events]
//Background and Video events
0,0,"goodBG.jpg"
//Break Periods
//Storyboard Layer 0 (Background)
//Storyboard Layer 1 (Fail)
//Storyboard Layer 2 (Pass)
//Storyboard Layer 3 (Foreground)
//Storyboard Sound Samples
//Background Colour Transformations
3,100,163,162,255

[TimingPoints]
594,434.782608695652,4,2,0,80,1,0
7550,-100,4,2,2,80,0,0
7659,-100,4,2,0,80,0,0
8420,-100,4,2,2,80,0,0
8528,-100,4,2,0,80,0,0
9289,-100,4,2,2,80,0,0
9398,-100,4,2,0,80,0,0
10159,-100,4,2,2,80,0,0
10267,-100,4,2,0,80,0,0
11028,-100,4,2,2,80,0,0
11137,-100,4,2,0,80,0,0
11898,-100,4,2,2,80,0,0
12007,-100,4,2,0,80,0,0
12767,-100,4,2,1,80,0,0
14289,-100,4,2,2,80,0,0
14507,-100,4,2,0,80,0,0
14615,-100,4,2,1,80,0,0
15159,-100,4,2,2,80,0,0
15267,-100,4,2,1,80,0,0
28420,-100,4,2,0,80,0,0
28854,-100,4,2,0,80,0,0
28963,-100,4,2,1,80,0,0
29724,-100,4,2,0,80,0,0
29833,-100,4,2,1,80,0,0
30593,-100,4,2,0,80,0,0
30702,-100,4,2,1,80,0,0
31463,-100,4,2,0,80,0,0
31572,-100,4,2,1,80,0,0
32224,-100,4,2,0,80,0,0
32659,-100,4,2,1,80,0,0
33202,-100,4,2,0,80,0,0
33311,-100,4,2,1,80,0,0
35376,-100,4,2,2,80,0,0
35485,-100,4,2,1,80,0,0
41680,-100,4,2,2,80,0,0
41898,-100,4,2,1,80,0,0
42333,-100,4,2,0,80,0,0
42441,-100,4,2,1,80,0,0
49289,-100,4,2,0,80,0,0
49398,-100,4,2,1,80,0,0
49724,-100,4,2,2,80,0,0
49833,-100,4,2,1,80,0,0
50593,-100,4,2,2,80,0,0
50702,-100,4,2,1,80,0,0
51463,-100,4,2,2,80,0,0
51572,-100,4,2,1,80,0,0
52767,-100,4,2,0,80,0,0
52876,-100,4,2,1,80,0,0
53202,-100,4,2,2,80,0,0
53311,-100,4,2,1,80,0,0
53963,-100,4,2,2,80,0,0
54072,-100,4,2,1,80,0,0
54941,-100,4,2,2,80,0,0
55050,-100,4,2,1,80,0,0
55811,-100,4,2,2,80,0,0
56246,-100,4,2,1,80,0,0
56680,-100,4,2,2,80,0,0
56789,-100,4,2,1,80,0,0
57550,-100,4,2,2,80,0,0
57659,-100,4,2,1,80,0,0
58311,-100,4,2,2,80,0,0
58420,-100,4,2,1,80,0,0
59289,-100,4,2,2,80,0,0
59398,-100,4,2,1,80,0,0
60159,-100,4,2,2,80,0,0
60267,-100,4,2,1,80,0,0
61028,-100,4,2,2,80,0,0
61137,-100,4,2,1,80,0,0
61898,-100,4,2,2,80,0,0
62007,-100,4,2,1,80,0,0
63202,-100,4,2,0,80,0,1
63311,-100,4,2,1,80,0,1
77115,-100,4,2,0,80,0,0
77985,-100,4,2,2,80,0,0
78093,-100,4,2,0,80,0,0
78854,-100,4,2,2,80,0,0
78963,-100,4,2,0,80,0,0
79724,-100,4,2,2,80,0,0
79833,-100,4,2,0,80,0,0
80593,-100,4,2,2,80,0,0
80702,-100,4,2,0,80,0,0
81463,-100,4,2,2,80,0,0
81572,-100,4,2,0,80,0,0
82333,-100,4,2,2,80,0,0
82441,-100,4,2,0,80,0,0
83202,-100,4,2,1,80,0,0
84072,-100,4,2,0,80,0,0

[Colours]
Combo1 : 230,70,74
Combo2 : 89,200,208
Combo3 : 241,122,35
Combo4 : 239,230,44
Combo5 : 130,88,154

[HitObjects]
400,72,594,1,0
111,72,1028,1,2
256,312,1463,1,0
256,312,1680,2,0,B|256:200,1,90,0|2
440,184,2333,5,0
376,304,2550,1,0
416,112,2767,1,2
432,256,2985,1,0
352,80,3202,1,0
352,80,3420,2,0,B|240:80,1,90,0|2
120,88,4072,5,0
214,361,4506,1,2
393,146,4941,1,0
393,146,5159,2,0,B|312:240,1,90,0|2
33,301,5811,5,0
195,214,6028,1,0
60,232,6246,1,2
264,192,6463,1,0
123,198,6680,1,0
280,124,6898,2,0,B|297:32,1,90,0|2
384,136,7550,6,0,B|312:176|352:280,1,135,8|0
368,280,7985,2,0,B|328:224|256:240,1,90,2|0
224,232,8420,2,0,B|128:232,1,90,8|0
121,265,8746,1,0
108,296,8854,2,0,B|12:296,1,90,2|0
88,144,9289,6,0,B|48:224,1,90,8|0
112,128,9724,2,0,B|37:177,1,90,2|0
144,128,10159,2,0,B|54:133,1,90
172,140,10593,1,2
256,64,10811,5,0
288,88,10920,1,0
320,112,11028,2,0,B|368:112|368:112|400:128|400:128|464:128,1,135,8|0
464,96,11463,2,0,B|416:216,1,90,2|0
399,246,11898,1,8
368,312,12115,2,0,B|248:312,1,90,0|2
88,120,12767,5,2
88,120,12912,1,2
88,120,13057,1,2
88,120,13202,1,2
88,120,13347,1,2
88,120,13492,1,2
88,120,13637,1,0
88,120,13854,2,0,B|88:224,1,90,0|2
192,296,14289,1,8
216,272,14398,1,8
248,248,14507,6,0,B|320:272|384:248,1,135,4|0
376,288,14941,2,0,B|392:168,1,90,8|8
448,104,15376,2,0,B|400:104|400:104|336:104|312:32,1,135,4|0
368,32,15811,2,0,B|256:32,1,90,8|0
256,48,16137,1,0
232,64,16246,2,0,B|112:64,1,90,4|0
176,168,16680,2,0,B|208:256,1,90,8|0
240,360,17115,2,0,B|224:352|224:352|208:368|208:368|192:352|192:352|176:368|176:368|160:352|160:352|144:368|144:368|128:360|128:360|56:360,1,180,4|8
336,272,17985,5,4
384,176,18202,1,0
288,128,18420,1,8
240,224,18637,1,0
376,240,18854,5,4
274,273,19072,1,0
240,172,19289,1,8
342,138,19506,1,0
352,336,19724,5,4
448,144,19941,1,0
256,48,20159,1,8
160,240,20376,1,0
176,88,20593,2,0,B|80:32,1,90
44,56,20920,1,0
64,112,21028,2,0,B|141:157,1,90,8|0
88,248,21463,6,0,B|96:296|144:312|144:312|176:312|208:312,1,135,4|0
168,360,21898,2,0,B|272:360,1,90,8|0
360,328,22333,2,0,B|448:328|472:248,1,135,4|0
467,261,22767,2,0,B|363:205,1,90,8|0
384,191,23093,1,0
380,165,23202,2,0,B|276:109,1,90,4|0
200,160,23637,2,0,B|279:202,1,90,8|0
280,312,24072,2,0,B|240:344|240:344|224:336|224:336|208:344|208:344|192:336|192:336|176:344|176:344|88:344,1,180,0|10
48,120,24724,5,0
72,104,24833,1,0
96,88,24942,2,0,B|200:88,1,90,4|0
288,48,25376,2,0,B|320:104|264:168,1,90,8|0
208,208,25811,2,0,B|176:264|232:328,1,90,4|0
304,248,26246,2,0,B|408:248,1,90,8|0
424,144,26680,2,0,B|456:40,1,90,4|0
396,64,27007,1,0
344,72,27115,2,0,B|317:158,1,90,8|0
216,128,27550,5,2
192,120,27659,1,2
168,112,27767,1,2
144,104,27876,1,2
120,96,27985,1,2
96,88,28093,1,2
72,80,28202,1,2
56,304,28420,6,0,B|104:304|104:304|136:296|136:296|200:296,1,135,4|0
176,328,28854,2,0,B|224:216,1,90,2|0
280,224,29289,2,0,B|320:128,1,90
352,128,29615,1,0
384,120,29724,2,0,B|424:32,1,90,2|0
320,48,30159,6,0,B|264:40|208:88,1,90
96,160,30593,2,0,B|152:168|208:120,1,90,2|0
181,139,31028,2,0,B|167:287,1,135
144,296,31463,2,0,B|216:232,1,90,2|0
352,312,31898,6,0,B|376:240|456:224,2,135,0|2|2
288,344,32767,2,0,B|176:344,1,90
172,320,33093,1,0
144,296,33202,2,0,B|32:296,1,90,2|0
256,192,33637,12,0,34941
422,90,35376,6,0,B|448:135|424:175,1,90,12|0
416,208,35702,2,0,B|432:240|432:240|384:216|336:232,1,135,2|0
296,336,36246,2,0,B|200:336,1,90,4|0
184,320,36572,1,0
160,304,36680,2,0,B|64:304,1,90,4|0
104,200,37115,2,0,B|144:80,1,90,4|0
88,88,37441,2,0,B|136:88|136:88|184:72|184:72|224:72,1,135,2|2
328,80,37985,2,0,B|424:128,1,90,0|0
408,160,38311,1,2
408,200,38420,2,0,B|312:152,1,90,4|2
224,280,38854,6,0,B|208:304|176:312|176:312|88:312,2,135,4|2|2
144,208,39724,2,0,B|64:144,1,90,4|2
64,96,40050,1,2
120,96,40159,2,0,B|200:160,1,90,4|0
321,152,40593,2,0,B|392:96,1,90,4|2
448,96,40919,1,2
438,151,41028,2,0,B|368:208,1,90,4|0
304,296,41463,1,4
200,320,41680,1,8
176,328,41789,1,8
152,336,41898,2,0,B|64:336,1,90,4|0
88,232,42333,6,0,B|112:128,1,90,4|0
120,88,42659,2,0,B|176:32|264:64,1,135,2|2
336,120,43202,2,0,B|346:117|346:117|349:128|349:128|360:125|360:125|363:136|363:136|410:135|442:190,1,135,0|2
436,181,43637,2,0,B|412:109|444:61,1,90,4|0
456,264,44072,2,0,B|410:266|378:306,1,90,4|0
424,344,44398,2,0,B|376:288|296:280,1,135,0|2
200,272,44941,1,4
96,88,45376,6,0,B|152:184,2,90,4|2|0
184,72,46028,1,0
208,84,46137,1,0
231,96,46246,2,0,B|327:151,2,90,4|2|0
328,48,47115,1,4
440,48,47333,1,2
384,144,47550,2,0,B|424:168|416:216|416:216|352:256,2,135,4|2|0
280,176,48420,5,2
256,184,48528,1,2
232,192,48637,1,2
208,200,48746,1,2
184,208,48854,1,2
160,216,48963,1,2
136,224,49072,1,2
96,336,49289,6,0,B|128:336|160:352|160:352|184:320|248:328,1,135,4|0
221,326,49724,2,0,B|352:328,1,90,6|0
400,264,50159,2,0,B|448:224|400:152,1,90,4|0
394,166,50485,1,0
371,151,50593,2,0,B|349:105|387:69,1,90,6|0
280,48,51028,2,0,B|144:24,1,135,4|0
168,72,51463,2,0,B|176:128|112:176,1,90,6|0
64,232,51898,5,6
88,240,52007,1,2
112,248,52115,1,2
136,256,52224,1,2
160,264,52333,1,6
184,272,52441,1,2
208,280,52550,1,2
232,288,52659,1,2
256,296,52767,6,0,B|200:240|224:160,1,135,4|0
176,184,53202,2,0,B|304:152,1,90,6|0
344,88,53637,2,0,B|352:152|416:152,1,90,4|0
448,168,53963,2,0,B|424:216|424:216|424:240|424:240|384:312,1,135,10|0
296,328,54507,6,0,B|248:360|176:328,1,90,4|0
192,320,54833,1,0
176,304,54941,2,0,B|128:272|56:304,1,90,6|0
104,184,55376,2,0,B|136:120|120:48,1,135,4|0
80,80,55811,2,0,B|184:96,1,90,6|10
192,80,56137,1,10
216,64,56246,6,0,B|264:56|320:80,1,90,4|0
296,320,56680,2,0,B|248:328|192:304,1,90,6|0
256,192,57115,2,0,B|312:176|360:200|360:200|344:152,1,135,4|0
360,120,57550,2,0,B|384:80|376:24,1,90,6|0
272,48,57985,2,0,B|160:48,1,90,4|0
208,72,58311,2,0,B|195:73|195:73|184:80|184:80|168:72|168:72|152:80|152:80|136:72|136:72|128:80|128:80|96:80|96:80|64:80,1,135,2|0
56,184,58854,2,0,B|104:240|72:312,1,135,4|0
40,352,59289,6,0,B|144:336,1,90,6|0
184,248,59724,1,4
280,296,59941,1,0
304,308,60050,1,0
328,320,60159,2,0,B|400:288|376:192,1,135,6|0
379,207,60593,2,0,B|467:151,1,90,4|0
456,104,60920,1,0
400,96,61028,2,0,B|312:152,1,90,6|0
232,88,61463,5,4
136,72,61680,1,0
216,184,61898,1,6
120,168,62115,1,0
280,256,62333,1,6
296,272,62441,1,2
312,288,62550,1,6
328,304,62659,1,2
344,320,62767,2,12,B|400:304|464:328,1,90,12|4
448,208,63202,6,0,B|408:152|440:72,1,135,4|0
472,64,63637,2,0,B|352:104,1,90,8|0
288,128,64072,2,0,B|240:144|176:128,1,90,4|0
232,176,64398,2,0,B|160:152|80:176,1,135,8|0
56,208,64833,1,0
72,256,64941,5,4
312,224,65159,1,0
152,328,65376,1,8
280,120,65593,1,0
256,312,65811,2,0,B|240:232|160:200,1,135,4|0
136,176,66246,2,0,B|136:64,1,90,8|0
160,72,66572,1,0
184,56,66680,5,4
288,48,66898,1,0
296,168,67115,1,8
392,208,67333,1,0
232,40,67550,1,4
328,80,67768,1,0
336,200,67985,1,8
440,192,68203,1,0
456,296,68420,6,0,B|432:336|360:352,1,90,4|0
336,320,68746,1,0
296,296,68854,2,0,B|218:250,1,90,8|0
176,352,69289,2,0,B|128:344|112:288|112:288|72:264,1,135,4|0
48,280,69724,2,0,B|48:176,1,90,8|0
128,120,70159,6,0,B|176:56|248:56,1,135,4|0
241,56,70593,2,0,B|136:32,1,90,8|0
296,128,71028,2,0,B|401:152,1,90,4|0
440,160,71354,2,0,B|472:248|392:312,1,135,8|0
368,304,71789,1,0
312,296,71898,5,4
128,224,72115,1,0
400,352,72333,1,8
200,304,72550,1,0
128,120,72767,2,0,B|208:120|248:56,1,135,4|0
243,62,73202,2,0,B|223:159,1,90,8|0
220,176,73528,1,0
216,204,73637,5,4
400,164,73854,1,0
296,164,74072,1,8
472,212,74289,1,0
352,92,74507,1,4
400,268,74724,1,0
400,164,74941,1,8
344,348,75158,1,0
472,212,75376,5,4
296,268,75593,1,0
272,280,75702,1,0
248,296,75811,2,0,B|136:296,1,90,8|0
64,248,76246,2,0,B|56:240|56:240|72:240|72:240|56:232|56:232|72:232|72:232|56:224|56:224|72:224|72:224|56:216|56:216|72:216|72:216|64:208|64:208|64:152,1,180,4|12
256,72,77115,6,0,B|304:112|392:120,1,135,4|0
352,168,77550,2,0,B|408:160|464:208,1,90,10|0
368,272,77985,1,8
376,376,78202,2,0,B|320:384|264:336,1,90,0|10
208,280,78637,1,0
192,256,78746,1,0
176,232,78854,6,0,B|136:272|80:272,1,90,8|0
192,160,79289,2,0,B|232:120|288:120,1,90,10|0
376,160,79724,1,8
352,56,79941,2,0,B|456:56,1,90,0|10
400,272,80376,1,0
408,300,80485,1,0
416,328,80593,6,0,B|360:328|360:328|336:336|336:336|272:336,1,135,8|0
296,312,81028,2,0,B|184:312,1,90,10|0
128,240,81463,1,8
168,144,81680,2,0,B|208:48,1,90,0|10
312,64,82115,1,0
360,48,82224,1,0
408,64,82333,6,0,B|448:96|432:184,1,90,8|0
344,208,82767,2,0,B|332:257|372:289,1,90,10|0
264,304,83202,1,2
236,308,83311,1,2
208,312,83420,1,2
180,316,83528,1,2
152,320,83637,1,2
124,324,83746,1,2
96,328,83854,1,2
68,332,83963,1,2
40,336,84072,1,4
