osu file format v12

[General]
AudioFilename: mus.mp3
AudioLeadIn: 0
PreviewTime: 97849
Countdown: 0
SampleSet: Soft
StackLeniency: 0.7
Mode: 0
LetterboxInBreaks: 0
WidescreenStoryboard: 0

[Editor]
DistanceSpacing: 1
BeatDivisor: 4
GridSize: 4
TimelineZoom: 1.4

[Metadata]
Title:Tong Hua
TitleUnicode:童話
Artist:Guang Liang
ArtistUnicode:王光良
Creator:samplefish
Version:Hard
Source:
Tags:fairy tale fairytale
BeatmapID:425091
BeatmapSetID:176495

[Difficulty]
HPDrainRate:5
CircleSize:4
OverallDifficulty:6
ApproachRate:7
SliderMultiplier:2.8
SliderTickRate:1

[Events]
//Background and Video events
0,0,"Konachan.com - 160562 2girls akemi_homura blush kaname_madoka kiss llaoi_free mahou_shoujo_madoka_magica ultimate_madoka yuri.jpg",0,0
//Break Periods
//Storyboard Layer 0 (Background)
//Storyboard Layer 1 (Fail)
//Storyboard Layer 2 (Pass)
//Storyboard Layer 3 (Foreground)
//Storyboard Sound Samples
//Background Colour Transformations
3,100,163,162,255

[TimingPoints]
589,882.352941176471,4,2,1,30,1,0
589,-200,4,2,1,30,0,0
42942,-166.666666666667,4,2,1,40,0,0
71177,-142.857142857143,4,2,1,50,0,0
99413,-125,4,2,1,60,0,1
125883,-100,4,2,1,60,0,0
127647,-100,4,2,1,70,0,1
152353,-125,4,2,1,60,0,0
159413,-125,4,2,1,50,0,0

[Colours]
Combo1 : 151,135,241
Combo2 : 251,121,241
Combo3 : 124,139,239
Combo4 : 242,98,203

[HitObjects]
88,208,589,6,0,P|112:112|224:72,1,210,2|0,0:0|0:0,0:0:0:0:
252,72,3236,1,2,0:0:0:0:
352,100,3898,1,0,0:0:0:0:
352,100,4119,6,0,P|344:168|360:212,1,105,2|0,0:0|0:0,0:0:0:0:
384,240,6765,1,2,0:0:0:0:
464,308,7427,1,0,0:0:0:0:
464,308,7647,6,0,P|424:344|354:337,1,105,2|0,0:0|0:0,0:0:0:0:
148,340,10295,2,0,P|128:288|120:232,1,105,2|0,0:0|0:0,0:0:0:0:
120,204,11177,5,2,0:0:0:0:
68,72,13383,2,0,P|112:88|160:80,1,70
196,56,14266,1,0,0:0:0:0:
264,76,14707,6,0,P|293:149|250:222,1,140,4|0,0:0|0:0,0:0:0:0:
200,144,16912,1,0,0:0:0:0:
200,144,17353,2,0,P|184:200|208:264,1,70,2|0,0:0|0:0,0:0:0:0:
145,269,18236,6,0,P|219:276|254:229,1,140,2|0,0:0|0:0,0:0:0:0:
398,75,20442,1,0,0:0:0:0:
346,121,20883,2,0,P|373:141|433:129,1,70
271,113,21765,6,0,B|265:175|331:223|382:204,1,140,4|0,0:0|0:0,0:0:0:0:
410,166,23089,1,0,0:0:0:0:
480,176,23530,2,0,B|472:272,1,70,2|0,0:0|0:0,0:0:0:0:
436,304,24412,1,0,0:0:0:0:
364,304,24854,6,0,B|328:300|305:337|305:337|252:316|252:316|215:355|156:329,1,210,0|2,0:0|0:0,0:0:0:0:
52,276,27060,1,2,0:0:0:0:
76,208,27501,1,0,0:0:0:0:
128,160,27942,2,0,P|168:164|208:136,1,70,2|0,0:0|0:0,0:0:0:0:
153,93,28825,6,0,P|232:90|263:158,1,140,4|0,0:0|0:0,0:0:0:0:
262,159,31030,1,0,0:0:0:0:
277,227,31472,2,0,P|317:205|327:139,1,105,2|0,0:0|0:0,0:0:0:0:
323,116,32353,6,0,B|288:72|218:75|194:128,1,140,4|0,0:0|0:0,0:0:0:0:
62,228,34560,2,0,P|98:255|144:254,2,70
71,320,35883,6,0,P|112:331|163:317,1,70,2|0,0:0|0:0,0:0:0:0:
246,238,37207,1,2,0:0:0:0:
261,306,37648,2,0,P|297:289|316:246,1,70
304,194,38530,1,0,0:0:0:0:
246,238,38971,6,0,P|266:313|330:333,1,140,0|0,0:0|0:0,0:0:0:0:
388,327,40294,1,2,0:0:0:0:
420,264,40736,2,0,P|417:229|436:186,1,70,0|0,0:0|0:0,0:0:0:0:
479,148,41619,1,0,0:0:0:0:
434,93,42060,2,0,P|404:69|342:73,1,70,2|0,0:0|0:0,0:0:0:0:
373,133,42941,6,0,P|335:124|311:100,1,70,4|0,0:0|0:0,0:0:0:0:
273,28,43825,2,0,B|242:45|231:78|231:78|176:90|163:145,1,167.999994873047,0|2,0:0|0:0,0:0:0:0:
244,164,45147,2,0,P|217:209|176:229,1,83.9999974365235,0|0,0:0|0:0,0:0:0:0:
163,145,46030,1,0,0:0:0:0:
96,100,46472,5,2,0:0:0:0:
28,152,46913,2,0,P|65:181|122:178,1,83.9999974365235
188,176,47795,2,0,L|156:236,1,41.9999987182618
188,176,48236,1,2,0:0:0:0:
244,116,48677,2,0,P|284:128|336:100,1,83.9999974365235
384,60,49560,1,0,0:0:0:0:
450,111,50000,6,0,B|432:141|401:144|401:144|430:213|376:253,1,167.999994873047,6|2,0:0|0:0,0:0:0:0:
326,185,51325,1,0,0:0:0:0:
308,267,51765,1,0,0:0:0:0:
368,325,52206,1,0,0:0:0:0:
446,295,52648,1,2,0:0:0:0:
379,243,53089,6,0,P|316:340|200:268,1,251.999992309571,0|2,0:0|0:0,0:0:0:0:
158,226,54854,2,0,P|181:217|221:222,1,41.9999987182618
242,221,55295,1,0,0:0:0:0:
287,291,55736,1,0,0:0:0:0:
256,368,56177,2,0,P|215:384|174:368,1,83.9999974365235,2|0,0:0|0:0,0:0:0:0:
216,295,57060,6,0,P|240:262|241:220,1,83.9999974365235,6|0,0:0|0:0,0:0:0:0:
159,237,57941,2,0,P|160:198|131:154,1,83.9999974365235,0|0,2:0|0:0,0:0:0:0:
120,122,58604,2,0,P|148:126|185:114,1,41.9999987182618,0|2,0:0|0:0,0:0:0:0:
225,69,59266,1,0,0:0:0:0:
301,34,59707,2,0,B|344:11|404:47,1,83.9999974365235,2|0,0:0|0:0,0:0:0:0:
425,107,60589,6,0,B|382:130|322:94,1,83.9999974365235,6|0,0:0|0:0,0:0:0:0:
281,49,61472,1,0,0:0:0:0:
202,18,61913,1,0,0:0:0:0:
99,224,62795,1,0,0:0:0:0:
24,260,63236,2,0,P|7:309|26:357,1,83.9999974365235,2|0,0:0|0:0,0:0:0:0:
93,311,64119,6,0,B|123:265|99:224|99:224|148:262|197:234,1,167.999994873047,4|2,0:0|0:0,0:0:0:0:
243,205,65442,2,0,P|254:259|215:304,1,83.9999974365235
159,280,66325,1,0,0:0:0:0:
204,350,66766,1,2,0:0:0:0:
287,357,67207,6,0,B|283:295|240:280|240:280|302:280|336:219|305:167,1,251.999992309571,0|2,0:0|0:0,0:0:0:0:
228,200,68972,1,0,0:0:0:0:
188,212,69192,2,0,P|163:222|118:211,1,41.9999987182618
72,184,69854,1,0,0:0:0:0:
376,40,70294,1,0,0:0:0:0:
256,352,70514,1,0,0:0:0:0:
136,40,70736,1,0,0:0:0:0:
392,268,70956,1,0,0:0:0:0:
120,268,71177,5,0,0:0:0:0:
54,315,72060,2,0,P|104:346|178:318,1,97.9999970092774,0|0,0:0|0:0,0:0:0:0:
183,318,72722,2,0,P|211:314|241:321,1,48.9999985046387,0|2,0:0|0:0,0:0:0:0:
328,303,73383,1,0,0:0:0:0:
406,364,73825,2,0,B|441:322|425:258,1,97.9999970092774
405,176,74707,5,0,0:0:0:0:
363,87,75148,2,0,P|303:103|247:71,1,110
211,14,76030,2,0,P|176:8|134:31,1,48.9999985046387,0|0,0:0|0:0,0:0:0:0:
124,40,76472,1,2,0:0:0:0:
71,122,76913,1,0,0:0:0:0:
135,195,77354,2,0,P|89:222|45:218,1,97.9999970092774,0|0,0:0|0:0,3:0:0:0:
149,112,78236,6,4,B|189:106|203:53|203:53|266:96|333:53,1,195.999994018555,4|2,0:0|0:0,0:0:0:0:
395,18,79560,2,0,P|407:50|402:98,1,48.9999985046387
400,113,80001,2,0,B|379:167|420:239,1,97.9999970092774,2|0,0:0|0:0,0:0:0:0:
464,286,80883,1,0,0:0:0:0:
385,344,81325,2,0,P|365:337|311:368,1,48.9999985046387
293,362,81766,6,0,B|243:371|203:323|203:323|157:368|88:331,1,195.999994018555,2|0,0:0|0:0,0:0:0:0:
142,250,83089,2,0,P|154:225|146:197,1,48.9999985046387
122,165,83530,1,6,0:0:0:0:
163,67,83972,2,0,P|114:60|54:98,2,97.9999970092774
122,165,85295,6,0,P|178:168|225:135,1,97.9999970092774,4|0,0:0|0:0,0:0:0:0:
273,70,86177,1,0,0:0:0:0:
363,31,86619,2,0,B|392:69|430:63|430:63|384:124|431:196,1,195.999994018555
501,125,87941,1,0,0:0:0:0:
430,63,88383,1,0,0:0:0:0:
362,135,88825,5,2,0:0:0:0:
406,222,89266,1,0,0:0:0:0:
361,309,89707,1,0,0:0:0:0:
264,326,90148,2,0,P|234:319|203:332,1,48.9999985046387
178,352,90589,2,0,P|175:304|152:261,1,97.9999970092774,2|0,0:0|0:0,0:0:0:0:
74,202,91472,2,0,B|110:157|174:164,1,97.9999970092774
255,188,92354,5,2,0:0:0:0:
449,209,93236,2,0,B|419:253|363:239,1,97.9999970092774,0|0,0:0|0:0,0:0:0:0:
300,314,94119,2,0,P|265:225|321:149,1,195.999994018555,2|2,0:0|0:0,0:0:0:0:
468,276,95883,6,0,P|425:278|483:211,1,195.999994018555,2|0,0:0|0:0,0:0:0:0:
200,195,97207,2,0,P|176:210|162:234,1,48.9999985046387
145,273,97648,1,2,0:0:0:0:
242,267,98089,2,0,P|265:252|278:230,1,48.9999985046387
294,188,98530,1,2,0:0:0:0:
349,106,98972,1,0,0:0:0:0:
201,112,99413,6,0,P|152:132|93:100,1,112,4|0,0:0|0:0,0:0:0:0:
56,215,100295,2,0,P|150:266|245:215,1,224,8|0,0:0|0:0,0:0:0:0:
335,145,101618,1,0,0:0:0:0:
226,111,102060,2,0,P|219:166|245:215,1,112,8|0,0:0|0:0,0:0:0:0:
341,272,102942,6,0,P|399:287|474:254,1,112
395,174,103825,1,8,0:0:0:0:
354,352,104266,2,0,P|329:345|301:357,1,56
260,368,104707,1,0,0:0:0:0:
168,301,105147,1,0,0:0:0:0:
69,354,105589,2,0,P|54:297|77:232,1,112,8|0,0:0|0:0,0:0:0:0:
168,36,106472,6,0,P|263:86|357:34,1,224,4|8,0:0|0:0,0:0:0:0:
464,38,107794,2,0,P|457:76|437:100,1,56
411,130,108236,1,0,0:0:0:0:
303,159,108677,1,0,0:0:0:0:
238,66,109119,2,0,B|177:104|185:179,1,112,8|0,0:0|0:0,0:0:0:0:
176,211,109780,6,0,B|174:240|160:267|160:267|101:238|29:292,1,168
112,352,110883,1,8,0:0:0:0:
285,210,111766,1,0,0:0:0:0:
396,200,112206,2,0,P|420:182|437:135,1,56
412,107,112648,2,0,P|427:81|472:59,1,56,8|0,0:0|0:0,0:0:0:0:
498,43,113089,1,0,0:0:0:0:
457,293,113530,6,0,P|405:310|351:300,1,112,4|0,0:0|0:0,0:0:0:0:
310,203,114412,2,0,B|260:225|247:286|247:286|205:279|205:279|188:325|134:343,1,224,8|0,0:0|0:0,0:0:0:0:
99,233,115736,1,0,0:0:0:0:
29,145,116177,2,0,P|-11:191|6:275,1,112,8|0,0:0|0:0,0:0:0:0:
35,352,117060,6,0,P|85:376|167:352,1,112,0|0,0:0|0:0,0:0:0:0:
214,285,117942,2,0,P|163:260|82:285,1,112,8|0,0:0|0:0,0:0:0:0:
242,368,118825,1,0,0:0:0:0:
345,326,119265,1,0,0:0:0:0:
443,271,119707,2,0,P|409:228|415:163,1,112,8|0,0:0|0:0,0:0:0:0:
485,86,120589,5,0,0:0:0:0:
260,89,121472,2,0,P|202:101|144:69,1,112,8|0,0:0|0:0,0:0:0:0:
44,62,122354,2,0,P|87:160|189:201,1,224,0|8,0:0|0:0,0:0:0:0:
190,202,124119,2,0,B|242:186|278:222|278:222|320:176|320:176|349:229|412:211,1,224,0|8,0:0|0:0,0:0:0:0:
419,114,125442,2,0,P|453:115|483:98,1,56
435,44,125883,5,0,0:0:0:0:
273,224,126325,1,0,0:0:0:0:
410,340,126766,1,0,0:0:0:0:
419,114,127207,1,0,0:0:0:0:
85,34,127648,5,4,0:0:0:0:
216,348,128530,2,0,P|269:314|276:238,1,140,8|0,0:0|0:0,0:0:0:0:
236,185,129192,2,0,P|212:159|220:117,1,70
312,24,129854,1,0,0:0:0:0:
424,108,130295,1,8,0:0:0:0:
340,220,130736,1,0,0:0:0:0:
232,132,131177,5,0,0:0:0:0:
340,220,131619,2,0,P|336:288|275:330,1,140,0|8,0:0|0:0,0:0:0:0:
144,332,132501,2,0,P|132:296|108:272,1,70,0|0,0:0|0:0,0:0:0:0:
40,268,132942,1,0,0:0:0:0:
156,192,133383,1,0,0:0:0:0:
144,332,133825,2,0,P|224:320|264:280,1,140,8|0,0:0|0:0,0:0:0:0:
408,56,134707,6,0,B|356:108|284:44|284:44|236:120|144:80,1,280,4|8,0:0|0:0,0:0:0:0:
40,24,136030,2,0,P|38:69|30:94,1,70
16,164,136472,2,0,P|23:268|180:296,1,280,0|8,0:0|0:0,0:0:0:0:
312,284,137795,2,0,P|340:280|400:284,1,70
452,288,138236,6,0,B|508:248|476:152|476:152|408:196|344:132,1,280,0|8,0:0|0:0,0:0:0:0:
236,68,139560,2,0,P|206:78|155:62,1,70
104,40,140001,2,0,P|51:53|10:127,1,140
156,184,140883,2,0,P|211:181|264:118,1,140,8|0,0:0|0:0,0:0:0:0:
404,68,141766,6,0,P|420:152|368:224,1,140,4|0,0:0|0:0,3:0:0:0:
126,319,142648,2,0,P|116:264|32:220,1,140,8|0,0:0|0:0,0:0:0:0:
4,164,143310,2,0,P|112:160|184:88,1,210
336,32,144413,2,0,P|352:68|400:92,1,70,8|0,0:0|0:0,0:0:0:0:
444,104,144854,1,0,0:0:0:0:
360,336,145295,6,0,L|220:336,1,140
152,48,146177,6,0,L|292:48,1,140
364,48,146839,5,4,0:0:0:0:
468,288,147942,2,0,P|412:308|336:288,1,140,8|0,0:0|0:0,0:0:0:0:
392,148,148825,5,0,0:0:0:0:
392,148,149266,1,0,0:0:0:0:
468,288,149706,2,0,P|412:308|336:288,1,140,8|0,0:0|0:0,0:0:0:0:
208,348,150589,2,0,B|164:356|132:320|132:320|4:312|16:188,1,280,0|8,0:0|0:0,0:0:0:0:
148,68,152354,6,0,P|256:104|376:60,1,224,0|8,0:0|0:0,0:0:0:0:
460,24,153677,1,0,0:0:0:0:
452,132,154119,2,0,P|443:204|436:252,1,112
392,344,155001,1,8,0:0:0:0:
308,268,155442,1,0,0:0:0:0:
316,380,155883,6,0,P|219:344|205:233,1,224,0|8,0:0|0:0,0:0:0:0:
212,128,157207,2,0,P|280:148|343:118,1,112
376,44,158089,1,0,0:0:0:0:
464,112,158530,2,0,P|460:184|404:230,1,112,8|0,0:0|0:0,0:0:0:0:
278,337,159413,6,0,B|219:406|124:318|214:213|279:268|279:268|293:78|293:78|332:141|404:148,2,560,0|8|0,0:0|0:0|0:0,0:0:0:0:
256,192,164707,12,4,169560,0:0:0:0:
