osu file format v12

[General]
AudioFilename: mus.mp3
AudioLeadIn: 0
PreviewTime: 97849
Countdown: 0
SampleSet: Soft
StackLeniency: 0.7
Mode: 0
LetterboxInBreaks: 0
WidescreenStoryboard: 0

[Editor]
DistanceSpacing: 1.1
BeatDivisor: 4
GridSize: 4
TimelineZoom: 1

[Metadata]
Title:Tong Hua
TitleUnicode:童話
Artist:Guang Liang
ArtistUnicode:王光良
Creator:samplefish
Version:Easy
Source:
Tags:fairy tale fairytale
BeatmapID:425090
BeatmapSetID:176495

[Difficulty]
HPDrainRate:2
CircleSize:2
OverallDifficulty:2
ApproachRate:3
SliderMultiplier:1.6
SliderTickRate:1

[Events]
//Background and Video events
0,0,"Konachan.com - 160562 2girls akemi_homura blush kaname_madoka kiss llaoi_free mahou_shoujo_madoka_magica ultimate_madoka yuri.jpg",0,0
//Break Periods
//Storyboard Layer 0 (Background)
//Storyboard Layer 1 (Fail)
//Storyboard Layer 2 (Pass)
//Storyboard Layer 3 (Foreground)
//Storyboard Sound Samples
//Background Colour Transformations
3,100,163,162,255

[TimingPoints]
569.764643486067,882.352941176471,4,2,1,30,1,0
42922,-100,4,2,1,40,0,0
71157,-100,4,2,1,50,0,0
99393,-100,4,2,1,60,0,1
125863,-100,4,2,1,60,0,0
127628,-100,4,2,1,70,0,1
154981,-100,4,2,1,60,0,0
159393,-100,4,2,1,50,0,0

[Colours]
Combo1 : 151,135,241
Combo2 : 251,121,241
Combo3 : 124,139,239
Combo4 : 242,98,203

[HitObjects]
88,200,569,6,0,P|136:88|269:86,1,240,2|0,0:0|0:0,0:0:0:0:
396,72,3216,2,0,P|400:132|440:176,1,120,2|0,0:0|0:0,0:0:0:0:
468,208,4099,6,0,P|440:260|368:280,1,120,2|0,0:0|0:0,0:0:0:0:
160,360,6746,2,0,P|100:336|64:260,1,120,2|0,0:0|0:0,0:0:0:0:
100,260,7628,6,0,P|116:212|72:144,1,120,2|0,0:0|0:0,0:0:0:0:
152,48,10275,2,0,P|250:59|280:64,1,120,2|0,0:0|0:0,0:0:0:0:
316,68,11157,5,2,0:0:0:0:
368,96,13363,2,0,P|404:124|416:156,2,80,0|0|0,0:0|0:0|0:0,0:0:0:0:
296,44,14687,6,0,P|284:128|340:180,1,160,4|0,0:0|0:0,0:0:0:0:
464,316,16893,1,0,0:0:0:0:
464,228,17334,2,0,P|416:240|376:292,1,80,0|0,0:0|0:0,0:0:0:0:
377,345,18216,6,0,P|317:369|213:353,1,160,2|0,0:0|0:0,0:0:0:0:
56,132,20422,1,0,0:0:0:0:
14,54,20863,2,0,P|50:42|103:61,1,80
143,121,21746,6,0,P|221:123|319:70,1,160,2|0,0:0|0:0,0:0:0:0:
368,42,23069,1,0,0:0:0:0:
455,47,23510,2,0,P|445:157|441:216,1,160
464,292,24834,6,0,B|428:304|394:286|394:286|311:344|239:284,1,240
124,152,27040,1,2,0:0:0:0:
124,152,28805,6,0,P|137:249|148:320,1,160,4|0,0:0|0:0,0:0:0:0:
408,345,31010,1,0,0:0:0:0:
435,261,31452,2,0,P|415:213|435:137,1,120
460,118,32334,6,0,P|382:80|293:109,1,160,2|0,0:0|0:0,0:0:0:0:
104,256,34540,2,0,P|64:248|16:268,2,80
152,328,35863,6,0,P|228:344|336:304,1,160,2|0,0:0|0:0,0:0:0:0:
376,268,37187,1,0,0:0:0:0:
376,268,37628,2,0,B|392:224|384:188|384:188|436:192|464:136,1,160
384,100,38952,6,0,P|272:64|156:100,1,240,0|0,0:0|0:0,0:0:0:0:
80,140,40716,2,0,P|76:188|96:232,1,80,0|2,0:0|0:0,0:0:0:0:
168,252,41599,1,0,0:0:0:0:
248,288,42040,2,0,P|252:332|236:380,1,80
156,364,42922,6,0,P|120:340|52:336,1,80,4|0,0:0|0:0,0:0:0:0:
1,302,43805,2,0,P|29:224|8:134,1,160,0|2,0:0|0:0,0:0:0:0:
47,67,45128,2,0,P|85:79|140:63,1,80,0|0,0:0|0:0,0:0:0:0:
208,48,46010,1,0,0:0:0:0:
288,84,46452,5,2,0:0:0:0:
364,36,46893,2,0,P|432:72|464:168,1,160
464,232,48216,1,2,0:0:0:0:
420,312,48657,2,0,P|380:300|336:312,1,80
260,340,49540,1,0,0:0:0:0:
260,340,49981,6,0,B|200:336|184:300|184:300|140:320|84:280,1,160,6|0,0:0|0:0,0:0:0:0:
60,232,51305,1,0,0:0:0:0:
148,216,51746,2,0,P|136:181|82:144,1,80,2|0,0:0|0:0,0:0:0:0:
32,104,52628,1,0,0:0:0:0:
55,19,53069,6,0,B|97:32|110:65|110:65|171:47|171:47|205:117|271:120,1,240,0|2,0:0|0:0,0:0:0:0:
419,127,55275,1,0,0:0:0:0:
468,200,55716,1,0,0:0:0:0:
494,114,56157,2,0,P|455:111|419:126,1,80,2|0,0:0|0:0,0:0:0:0:
376,202,57040,6,0,P|392:257|433:283,1,80,4|0,0:0|0:0,0:0:0:0:
488,306,57922,2,0,P|440:354|347:332,1,160,2|0,0:0|0:0,0:0:0:0:
286,284,59246,1,0,0:0:0:0:
208,324,59687,2,0,P|181:356|110:364,1,80,2|0,0:0|0:0,0:0:0:0:
58,358,60569,6,0,B|70:298|125:284|125:284|85:275|74:220,1,160,6|0,0:0|0:0,0:0:0:0:
158,202,61893,1,0,0:0:0:0:
32,78,62775,1,0,0:0:0:0:
119,76,63216,2,0,P|170:75|225:41,1,80,2|0,0:0|0:0,0:0:0:0:
283,36,64099,6,0,B|364:46|364:46|340:103|379:144,1,160,4|2,0:0|0:0,0:0:0:0:
443,86,65422,2,0,P|449:138|417:186,1,80
364,209,66305,1,0,0:0:0:0:
423,274,66746,1,2,0:0:0:0:
472,347,67187,6,0,B|425:376|370:348|370:348|318:369|318:369|290:328|233:334,1,240,0|2,0:0|0:0,0:0:0:0:
161,345,68952,1,0,0:0:0:0:
76,319,69393,2,0,P|58:283|72:226,1,80
128,188,70275,2,0,P|128:147|90:102,1,80,2|0,0:0|0:0,0:0:0:0:
44,172,71157,5,4,0:0:0:0:
181,61,72040,2,0,P|256:86|331:61,1,160,0|2,0:0|0:0,0:0:0:0:
416,32,73363,1,0,0:0:0:0:
412,120,73805,2,0,B|392:160|392:160|400:208,1,80
452,264,74687,5,2,0:0:0:0:
372,300,75128,2,0,P|328:296|276:316,1,80
220,352,76010,2,0,P|176:368|132:352,1,80,0|2,0:0|0:0,0:0:0:0:
84,296,76893,1,0,0:0:0:0:
172,276,77334,2,0,P|156:240|96:216,1,80
60,156,78216,6,0,B|88:80|88:80|144:92|196:56,1,160,4|0,0:0|0:0,0:0:0:0:
256,60,79540,1,0,0:0:0:0:
346,72,79981,2,0,B|368:92|424:80|424:80|451:154,1,160,2|0,0:0|0:0,0:0:0:0:
484,236,81305,1,0,0:0:0:0:
492,323,81746,6,0,B|435:332|400:279|400:279|381:314|332:324,1,160,2|0,0:0|0:0,0:0:0:0:
320,236,83069,1,0,0:0:0:0:
264,304,83510,1,2,0:0:0:0:
176,324,83952,2,0,P|134:340|85:328,2,80
126,251,85275,6,0,P|165:236|213:245,1,80,4|0,0:0|0:0,0:0:0:0:
264,304,86157,1,0,0:0:0:0:
344,336,86599,2,0,P|464:300|448:200,1,240,0|2,0:0|0:0,0:0:0:0:
384,260,88363,1,0,0:0:0:0:
344,180,88805,6,0,P|312:149|276:120,1,80
212,176,89687,2,0,P|264:224|296:248,1,80,2|0,0:0|0:0,0:0:0:0:
332,292,90569,1,0,0:0:0:0:
403,240,91010,1,0,0:0:0:0:
472,184,91452,2,0,B|464:166|434:154|434:154|465:86|407:42,1,160,2|0,0:0|0:0,0:0:0:0:
248,96,93216,6,0,P|216:116|156:108,1,80,2|0,0:0|0:0,0:0:0:0:
154,201,94099,2,0,P|92:155|103:64,1,160,0|2,0:0|0:0,0:0:0:0:
256,72,95863,6,0,L|256:320,1,240
344,332,97628,1,0,0:0:0:0:
432,316,98069,2,0,B|464:284|464:284|472:228,1,80,0|2,0:0|0:0,0:0:0:0:
436,168,98952,1,0,0:0:0:0:
480,92,99393,6,0,P|436:80|388:96,1,80,4|0,0:0|0:0,0:0:0:0:
352,156,100275,2,0,P|272:188|192:144,1,160,8|0,0:0|0:0,0:0:0:0:
144,100,101599,1,0,0:0:0:0:
64,64,102040,2,0,P|56:116|72:152,1,80,8|0,0:0|0:0,0:0:0:0:
84,227,102922,6,0,P|143:177|144:100,1,160,0|8,0:0|0:0,0:0:0:0:
207,39,104246,2,0,P|278:43|321:44,1,80
376,56,105128,1,0,0:0:0:0:
460,24,105569,2,0,P|464:76|432:128,1,80,8|0,0:0|0:0,0:0:0:0:
407,176,106452,6,0,P|287:265|167:176,1,320,4|0,0:0|0:0,0:0:0:0:
128,100,108657,1,0,0:0:0:0:
44,72,109099,2,0,B|28:132|72:172|72:172|40:200|68:244,1,160,8|0,0:0|0:0,0:0:0:0:
164,328,110863,5,8,0:0:0:0:
340,340,111746,1,0,0:0:0:0:
420,300,112187,2,0,P|452:276|452:204,1,80,0|8,0:0|0:0,0:0:0:0:
432,156,113069,1,0,0:0:0:0:
372,220,113510,6,0,P|330:218|291:176,1,80,4|0,0:0|0:0,0:0:0:0:
312,108,114393,2,0,B|272:97|225:140|225:140|180:96|180:96|144:132|85:102,1,240,8|0,0:0|0:0,0:0:0:0:
52,40,116157,1,8,0:0:0:0:
12,120,116599,1,0,0:0:0:0:
36,204,117040,6,0,L|132:204,1,80,0|0,0:0|0:0,0:0:0:0:
112,292,117922,2,0,L|200:292,1,80,8|0,0:0|0:0,0:0:0:0:
280,292,118805,1,0,0:0:0:0:
365,312,119246,1,0,0:0:0:0:
449,288,119687,2,0,P|437:252|445:192,1,80,8|0,0:0|0:0,0:0:0:0:
496,144,120569,5,0,0:0:0:0:
348,48,121452,2,0,P|308:60|264:48,1,80,8|0,0:0|0:0,0:0:0:0:
187,24,122334,2,0,P|142:106|78:120,1,160,0|8,0:0|0:0,0:0:0:0:
40,292,124099,6,0,B|92:276|128:312|128:312|200:264|200:264|236:336|324:308,1,320,4|0,0:0|0:0,0:0:0:0:
372,244,126305,1,0,0:0:0:0:
284,228,126746,1,0,0:0:0:0:
252,312,127187,1,0,0:0:0:0:
168,288,127628,5,4,0:0:0:0:
32,176,128510,2,0,P|72:152|84:100,1,80,8|0,0:0|0:0,0:0:0:0:
1,92,129393,2,0,P|27:54|82:37,1,80,2|0,0:0|0:0,0:0:0:0:
144,41,130275,1,8,0:0:0:0:
230,55,130716,1,0,0:0:0:0:
316,36,131157,6,0,B|356:64|397:46|397:46|432:72|448:128,1,160,2|8,0:0|0:0,0:0:0:0:
448,192,132481,1,0,0:0:0:0:
444,280,132922,2,0,L|348:280,1,80,2|0,0:0|0:0,0:0:0:0:
316,356,133805,2,0,L|228:356,1,80,8|0,0:0|0:0,0:0:0:0:
148,348,134687,6,0,B|152:296|204:272|204:272|176:248|180:208,1,160,4|8,0:0|0:0,0:0:0:0:
212,136,136010,1,0,0:0:0:0:
268,204,136452,2,0,P|292:248|240:360,1,160,2|8,0:0|0:0,0:0:0:0:
172,344,137775,1,0,0:0:0:0:
84,336,138216,6,0,B|28:296|45:262|45:262|83:253|101:218,1,160,2|8,0:0|0:0,0:0:0:0:
27,173,139540,1,0,0:0:0:0:
63,92,139981,2,0,P|105:64|162:64,1,80,2|0,0:0|0:0,0:0:0:0:
208,108,140863,2,0,P|248:120|300:96,1,80,8|0,0:0|0:0,0:0:0:0:
369,87,141746,6,0,L|365:259,1,160,4|8,0:0|0:0,0:0:0:0:
453,267,143069,2,0,B|425:347|341:335|341:335|286:377|233:343,1,240,0|8,0:0|0:0,0:0:0:0:
173,311,144834,1,0,0:0:0:0:
96,268,145275,6,0,L|80:188,1,80,2|0,0:0|0:0,0:0:0:0:
168,176,146157,6,0,L|152:96,1,80,8|0,0:0|0:0,0:0:0:0:
72,60,147040,5,4,0:0:0:0:
248,60,147922,2,0,P|292:76|352:56,1,80,8|0,0:0|0:0,0:0:0:0:
404,40,148805,5,2,0:0:0:0:
480,196,149687,2,0,P|484:248|460:296,1,80,8|0,0:0|0:0,0:0:0:0:
484,360,150569,2,0,B|440:368|408:332|408:332|376:356|312:352,1,160,2|8,0:0|0:0,0:0:0:0:
160,360,152334,6,0,B|152:336|168:304|168:304|108:268|124:196,1,160,4|8,0:0|0:0,0:0:0:0:
164,144,153657,1,0,0:0:0:0:
212,220,154099,2,0,P|296:224|400:220,1,160,2|8,0:0|0:0,0:0:0:0:
452,192,155422,1,0,0:0:0:0:
388,131,155863,6,0,P|333:14|286:143,1,320,2|8,0:0|0:0,0:0:0:0:
312,208,158069,1,0,0:0:0:0:
332,292,158510,2,0,P|312:312|236:308,1,80
176,332,159393,6,0,B|121:380|41:298|115:231|173:249|173:249|171:129|171:129|202:183|253:172,2,400,4|8|0,0:0|0:0|0:0,0:0:0:0:
256,192,164687,12,4,169540,0:0:0:0:
