osu file format v14

[General]
AudioFilename: on the cloud.mp3
AudioLeadIn: 0
PreviewTime: 51508
Countdown: 0
SampleSet: Soft
StackLeniency: 0.7
Mode: 0
LetterboxInBreaks: 0
WidescreenStoryboard: 1

[Editor]
DistanceSpacing: 2
BeatDivisor: 4
GridSize: 8
TimelineZoom: 1

[Metadata]
Title:On The Cloud
TitleUnicode:在云端
Artist:Guan Xin
ArtistUnicode:关莘
Creator:Milo
Version:On the Cloud
Source:云端的日子
Tags:LifeOnTheCloud Chinese
BeatmapID:785757
BeatmapSetID:356457

[Difficulty]
HPDrainRate:7
CircleSize:4
OverallDifficulty:8
ApproachRate:8.5
SliderMultiplier:1.4
SliderTickRate:1

[Events]
//Background and Video events
0,0,"123.png",0,0
//Break Periods
//Storyboard Layer 0 (Background)
//Storyboard Layer 1 (Fail)
//Storyboard Layer 2 (Pass)
//Storyboard Layer 3 (Foreground)
//Storyboard Sound Samples

[TimingPoints]
1833,389.61038961039,4,2,0,80,1,0
10794,-100,4,3,0,80,0,0
11962,-100,4,3,0,100,0,0
12936,-100,4,1,0,85,0,0
14300,-100,4,2,0,70,0,0
23651,-100,4,2,0,80,0,0
26378,-100,4,2,0,80,0,0
31248,-100,4,3,0,85,0,0
31833,-100,4,2,0,80,0,0
35729,-100,4,1,0,70,0,0
38845,-100,4,2,0,70,0,0
41962,-100,4,2,0,75,0,0
43910,-100,4,2,0,85,0,0
48196,-100,4,1,0,80,0,0
51410,-100,4,1,0,80,0,1
57547,-100,4,2,0,85,0,1
63781,-100,4,1,0,90,0,1
70014,-100,4,2,0,90,0,1
76638,-100,4,2,0,100,0,0

[HitObjects]
56,64,1818,5,0,0:0:0:0:
56,64,2027,1,0,0:0:0:0:
128,48,2222,2,0,B|176:56|200:104,1,70
128,120,2612,1,0,0:0:0:0:
88,176,2807,1,0,0:0:0:0:
160,184,3001,1,4,0:0:0:0:
256,80,3391,5,0,0:0:0:0:
320,48,3586,1,0,0:0:0:0:
320,120,3781,1,0,0:0:0:0:
384,88,3975,1,0,0:0:0:0:
376,160,4170,1,0,0:0:0:0:
328,208,4365,1,0,0:0:0:0:
248,224,4560,2,8,P|256:176|288:144,1,70
256,88,4949,5,0,0:0:0:0:
208,144,5144,1,0,0:0:0:0:
144,176,5339,2,0,P|120:208|112:248,1,70
184,240,5729,1,0,0:0:0:0:
128,320,5923,1,0,0:0:0:0:
232,320,6118,1,4,0:0:0:0:
368,296,6508,5,0,0:0:0:0:
280,240,6703,1,0,0:0:0:0:
368,192,6897,1,0,0:0:0:0:
456,248,7092,1,0,0:0:0:0:
448,144,7287,1,0,0:0:0:0:
352,112,7482,1,0,0:0:0:0:
328,40,7677,2,0,P|285:45|265:92,1,70
216,128,8066,5,0,0:0:0:0:
152,96,8261,1,0,0:0:0:0:
88,80,8456,2,8,P|57:96|36:124,1,70
64,192,8845,1,0,0:0:0:0:
120,232,9040,1,0,0:0:0:0:
192,200,9235,1,4,0:0:0:0:
320,264,9625,5,0,0:0:0:0:
320,264,9820,1,0,0:0:0:0:
176,264,10014,1,0,0:0:0:0:
176,264,10209,1,0,0:0:0:0:
152,168,10404,1,0,0:0:0:0:
264,80,10599,1,0,0:0:0:0:
384,176,10794,1,4,0:0:0:0:
384,72,11183,6,8,P|408:72|408:96,1,35
408,288,11573,6,8,P|408:312|384:312,1,35
304,264,11962,5,0,0:0:0:0:
216,176,12352,1,0,0:0:0:0:
320,64,12742,1,4,0:0:0:0:
344,112,12936,1,4,0:0:0:0:
152,192,13326,5,0,0:0:0:0:
171,162,13423,1,0,0:0:0:0:
200,144,13521,1,0,0:0:0:0:
234,138,13618,1,0,0:0:0:0:
268,146,13716,1,0,0:0:0:0:
336,152,13910,1,8,0:0:0:0:
424,256,14300,1,4,0:0:0:0:
80,72,15469,5,0,0:0:0:0:
128,128,15664,1,0,0:0:0:0:
152,64,15858,2,0,B|200:80|208:144|208:144,1,70
264,136,16248,1,0,0:0:0:0:
400,136,16443,1,0,0:0:0:0:
168,288,16833,1,0,0:0:0:0:
264,136,17222,1,0,0:0:0:0:
288,64,17417,2,0,P|352:112|296:208,1,210
232,152,18196,1,0,0:0:0:0:
216,216,18391,1,0,0:0:0:0:
248,272,18586,2,0,L|323:331,1,70
176,312,19170,1,4,0:0:0:0:
64,288,19755,6,0,P|30:262|24:216,1,70
80,208,20144,1,0,0:0:0:0:
72,144,20339,1,0,0:0:0:0:
136,128,20534,2,0,P|192:176|216:240,3,140
296,144,22092,5,0,0:0:0:0:
368,264,22287,1,0,0:0:0:0:
224,264,22482,1,0,0:0:0:0:
296,144,22677,1,0,0:0:0:0:
328,64,22871,2,0,P|360:80|376:112,1,70
304,208,23261,1,0,0:0:0:0:
168,296,23456,1,0,0:0:0:0:
136,152,23651,1,8,0:0:0:0:
144,40,24040,5,8,0:0:0:0:
416,112,24430,1,8,0:0:0:0:
152,192,24820,1,8,0:0:0:0:
416,272,25209,1,0,0:0:0:0:
136,296,25599,2,4,P|273:226|311:88,1,280
128,80,26768,5,0,0:0:0:0:
152,104,26962,1,0,0:0:0:0:
184,104,27157,2,0,P|216:104|232:72,1,70
312,224,27547,1,0,0:0:0:0:
312,224,27742,1,0,0:0:0:0:
312,224,27936,1,4,0:0:0:0:
344,64,28326,5,0,0:0:0:0:
368,88,28521,1,0,0:0:0:0:
384,120,28716,2,8,P|352:144|304:120,1,70
152,272,29105,1,0,0:0:0:0:
120,256,29300,1,0,0:0:0:0:
96,232,29495,1,0,0:0:0:0:
112,144,29690,2,0,B|160:160|184:208|184:208,1,70
288,56,30274,1,0,0:0:0:0:
288,120,30664,1,0,0:0:0:0:
456,120,30858,1,0,0:0:0:0:
288,128,31053,1,0,0:0:0:0:
448,128,31248,1,0,0:0:0:0:
320,296,31638,5,4,0:0:0:0:
192,88,31833,1,4,0:0:0:0:
104,160,32222,5,0,0:0:0:0:
168,192,32417,1,0,0:0:0:0:
168,120,32612,1,0,0:0:0:0:
152,48,32807,2,0,P|224:64|240:144,1,140
320,128,33391,1,0,0:0:0:0:
320,200,33586,2,0,P|392:248|392:248,2,70
256,192,34170,1,8,0:0:0:0:
312,104,34560,5,0,0:0:0:0:
456,104,34755,1,0,0:0:0:0:
384,224,34949,1,0,0:0:0:0:
312,104,35144,2,0,L|384:168,1,70
416,200,35534,1,8,0:0:0:0:
344,192,35729,1,8,0:0:0:0:
224,192,36118,5,0,0:0:0:0:
224,192,36216,1,0,0:0:0:0:
112,136,36410,1,0,0:0:0:0:
112,136,36508,1,0,0:0:0:0:
152,40,36703,1,0,0:0:0:0:
176,64,36800,1,0,0:0:0:0:
200,88,36897,1,0,0:0:0:0:
216,120,36995,1,0,0:0:0:0:
224,152,37092,1,0,0:0:0:0:
392,144,37287,5,0,0:0:0:0:
392,144,37384,1,0,0:0:0:0:
304,264,37579,1,0,0:0:0:0:
304,264,37677,1,0,0:0:0:0:
184,328,37871,1,0,0:0:0:0:
149,321,37968,1,0,0:0:0:0:
119,303,38065,1,0,0:0:0:0:
98,276,38163,1,0,0:0:0:0:
88,243,38260,1,0,0:0:0:0:
88,160,38456,2,4,P|104:160|120:152,1,35
168,56,38845,5,0,0:0:0:0:
240,64,39040,1,0,0:0:0:0:
312,72,39235,2,8,B|416:72|416:168|416:168,3,140
173,226,40794,6,0,L|317:170,1,140
192,112,41378,2,8,L|352:48,1,140
368,88,41962,1,8,0:0:0:0:
72,336,42352,5,4,0:0:0:0:
184,336,42742,1,0,0:0:0:0:
184,264,42936,2,0,L|256:208,1,70
288,160,43326,1,0,0:0:0:0:
256,112,43521,1,8,0:0:0:0:
144,88,43910,5,0,0:0:0:0:
280,80,44300,1,0,0:0:0:0:
368,192,44495,1,0,0:0:0:0:
368,192,44592,1,0,0:0:0:0:
368,192,44690,1,0,0:0:0:0:
368,192,44787,1,0,0:0:0:0:
368,192,44884,1,0,0:0:0:0:
256,272,45079,1,4,0:0:0:0:
136,192,45469,5,0,0:0:0:0:
152,128,45664,1,0,0:0:0:0:
184,104,45858,2,0,L|272:80,1,70
328,80,46248,1,0,0:0:0:0:
376,128,46443,1,0,0:0:0:0:
416,184,46638,1,8,0:0:0:0:
104,120,47027,2,0,L|176:96,1,70
240,192,47417,1,0,0:0:0:0:
192,272,47612,1,0,0:0:0:0:
144,192,47807,1,0,0:0:0:0:
88,272,48001,1,0,0:0:0:0:
56,192,48196,1,4,0:0:0:0:
112,64,48586,5,0,0:0:0:0:
176,88,48781,1,0,0:0:0:0:
152,152,48975,1,0,0:0:0:0:
216,184,49170,1,0,0:0:0:0:
352,232,49560,1,0,0:0:0:0:
336,264,49657,1,0,0:0:0:0:
304,280,49755,1,0,0:0:0:0:
184,200,49949,5,0,0:0:0:0:
232,144,50144,1,0,0:0:0:0:
288,104,50339,1,0,0:0:0:0:
360,112,50534,1,0,0:0:0:0:
416,160,50729,1,0,0:0:0:0:
376,296,51118,1,8,0:0:0:0:
352,320,51216,1,8,0:0:0:0:
320,336,51313,1,8,0:0:0:0:
256,176,51703,5,0,0:0:0:0:
184,296,51897,1,0,0:0:0:0:
48,256,52092,1,0,0:0:0:0:
72,120,52287,1,0,0:0:0:0:
208,104,52482,1,0,0:0:0:0:
264,232,52677,2,8,P|299:237|327:194,1,70
304,96,53261,5,0,0:0:0:0:
440,80,53456,1,0,0:0:0:0:
376,208,53651,1,0,0:0:0:0:
240,192,53845,1,0,0:0:0:0:
152,144,54235,2,8,P|184:104|216:96,1,70
104,304,54820,5,4,0:0:0:0:
56,176,55014,1,0,0:0:0:0:
192,224,55209,1,0,0:0:0:0:
144,96,55404,1,0,0:0:0:0:
272,144,55599,1,0,0:0:0:0:
376,56,55794,1,0,0:0:0:0:
432,184,55988,1,4,0:0:0:0:
368,304,56378,5,0,0:0:0:0:
264,272,56573,1,0,0:0:0:0:
176,336,56768,1,0,0:0:0:0:
144,240,56962,1,0,0:0:0:0:
56,240,57157,1,8,0:0:0:0:
56,208,57255,1,8,0:0:0:0:
80,184,57352,1,8,0:0:0:0:
168,120,57547,1,8,0:0:0:0:
256,192,57936,5,4,0:0:0:0:
384,248,58326,1,0,0:0:0:0:
408,312,58521,1,0,0:0:0:0:
456,256,58716,1,0,0:0:0:0:
424,192,58910,1,0,0:0:0:0:
376,240,59105,1,8,0:0:0:0:
192,224,59495,1,0,0:0:0:0:
56,208,59884,5,0,0:0:0:0:
88,152,60079,1,0,0:0:0:0:
136,112,60274,2,0,P|176:88|216:88,1,70
280,80,60664,1,0,0:0:0:0:
344,112,60858,1,0,0:0:0:0:
400,160,61053,1,8,0:0:0:0:
352,296,61443,5,4,0:0:0:0:
128,296,61833,1,0,0:0:0:0:
256,192,62222,1,8,0:0:0:0:
256,192,62417,1,8,0:0:0:0:
352,88,62807,1,0,0:0:0:0:
384,96,63001,1,0,0:0:0:0:
416,104,63196,1,0,0:0:0:0:
448,120,63391,1,0,0:0:0:0:
432,248,63586,1,8,0:0:0:0:
440,280,63683,1,8,0:0:0:0:
416,304,63781,1,8,0:0:0:0:
280,288,64170,5,4,0:0:0:0:
144,288,64365,1,0,0:0:0:0:
216,168,64560,1,0,0:0:0:0:
280,288,64755,1,0,0:0:0:0:
136,288,64949,1,0,0:0:0:0:
216,176,65144,1,0,0:0:0:0:
288,296,65339,1,8,0:0:0:0:
152,296,65729,5,0,0:0:0:0:
48,208,65923,1,0,0:0:0:0:
184,200,66118,2,8,P|216:176|208:120,1,70
136,128,66508,1,0,0:0:0:0:
192,80,66703,1,0,0:0:0:0:
248,32,66897,1,8,0:0:0:0:
256,328,67287,5,4,0:0:0:0:
376,264,67482,1,0,0:0:0:0:
256,192,67677,1,0,0:0:0:0:
136,120,67871,1,0,0:0:0:0:
192,80,68066,1,8,0:0:0:0:
224,72,68164,1,8,0:0:0:0:
256,72,68261,1,8,0:0:0:0:
328,80,68456,1,8,0:0:0:0:
248,192,68845,6,0,L|328:144,1,70
296,264,69235,1,0,0:0:0:0:
232,280,69430,1,0,0:0:0:0:
272,224,69625,1,0,0:0:0:0:
312,168,69820,1,0,0:0:0:0:
336,104,70014,1,4,0:0:0:0:
264,96,70404,6,0,L|120:160,1,140
112,208,70988,1,0,0:0:0:0:
184,328,71183,1,0,0:0:0:0:
256,208,71378,1,0,0:0:0:0:
112,208,71573,1,8,0:0:0:0:
112,64,71962,5,4,0:0:0:0:
168,104,72157,1,0,0:0:0:0:
176,32,72352,2,8,P|216:48|225:97,1,70
240,144,72742,1,0,0:0:0:0:
168,144,72936,1,0,0:0:0:0:
96,144,73131,1,8,0:0:0:0:
160,272,73521,5,4,0:0:0:0:
232,272,73716,1,0,0:0:0:0:
184,216,73910,1,0,0:0:0:0:
144,160,74105,1,0,0:0:0:0:
208,144,74300,2,0,B|256:168|256:224|304:264,1,140
360,256,74884,1,0,0:0:0:0:
384,88,75274,1,8,0:0:0:0:
240,88,75469,1,8,0:0:0:0:
128,288,75858,1,4,0:0:0:0:
264,288,76053,1,0,0:0:0:0:
256,192,76638,1,4,0:0:0:0:
256,192,77027,12,0,81313,0:0:0:0:
