osu file format v14

[General]
AudioFilename: on the cloud.mp3
AudioLeadIn: 0
PreviewTime: 51508
Countdown: 0
SampleSet: Soft
StackLeniency: 0.7
Mode: 0
LetterboxInBreaks: 0
WidescreenStoryboard: 1

[Editor]
DistanceSpacing: 1
BeatDivisor: 2
GridSize: 4
TimelineZoom: 1

[Metadata]
Title:On The Cloud
TitleUnicode:在云端
Artist:Guan Xin
ArtistUnicode:关莘
Creator:Milo
Version:Normal
Source:云端的日子
Tags:LifeOnTheCloud Chinese
BeatmapID:785512
BeatmapSetID:356457

[Difficulty]
HPDrainRate:2
CircleSize:3
OverallDifficulty:4
ApproachRate:5
SliderMultiplier:1.4
SliderTickRate:1

[Events]
//Background and Video events
0,0,"123.png",0,0
//Break Periods
//Storyboard Layer 0 (Background)
//Storyboard Layer 1 (Fail)
//Storyboard Layer 2 (Pass)
//Storyboard Layer 3 (Foreground)
//Storyboard Sound Samples

[TimingPoints]
1833,389.61038961039,4,2,0,80,1,0
11183,-100,4,3,0,90,0,0
14300,-100,4,2,0,70,0,0
25209,-100,4,2,0,75,0,0
37677,-100,4,3,0,70,0,0
43910,-100,4,2,0,85,0,0
51313,-100,4,1,0,95,0,1
62612,-100,4,1,0,100,0,1
76638,-100,4,2,0,100,0,0

[HitObjects]
116,128,1833,6,0,P|164:64|248:64,2,140
248,168,3001,1,8,0:0:0:0:
115,255,3391,2,0,P|153:313|219:329,2,140
136,116,4560,1,8,0:0:0:0:
256,188,4949,1,4,0:0:0:0:
392,128,5729,1,8,0:0:0:0:
396,255,6508,2,0,P|358:313|292:329,3,140
256,192,8066,1,4,0:0:0:0:
172,80,8845,1,8,0:0:0:0:
292,53,9625,2,0,P|358:70|396:128,2,140
128,280,11183,5,4,0:0:0:0:
408,284,11962,1,4,0:0:0:0:
148,180,12742,2,0,P|157:147|204:135,1,70
384,56,13521,1,4,0:0:0:0:
304,236,14300,1,4,0:0:0:0:
80,80,15858,6,0,P|128:84|152:120,1,70
208,152,16638,1,0,0:0:0:0:
104,196,17027,1,0,0:0:0:0:
204,268,17417,1,0,0:0:0:0:
296,212,18196,2,0,P|303:178|295:144,3,70
320,60,19755,2,0,P|396:40|468:88,3,140
376,136,21313,1,0,0:0:0:0:
304,204,22092,2,8,P|336:228|400:208,1,70
448,160,22871,2,8,P|416:136|352:156,1,70
240,132,23651,2,0,P|176:164|120:72,2,140
184,48,24820,1,0,0:0:0:0:
324,48,25209,1,4,0:0:0:0:
388,160,26768,5,4,0:0:0:0:
304,264,27157,1,0,0:0:0:0:
176,260,27547,1,8,0:0:0:0:
108,144,27936,1,0,0:0:0:0:
224,160,28326,2,0,P|288:208|360:152,3,140
304,88,29884,1,4,0:0:0:0:
400,168,30664,2,0,P|408:200|388:236,1,70
256,268,31248,1,8,0:0:0:0:
152,228,32222,6,0,P|84:192|48:128,1,140
168,112,33001,1,8,0:0:0:0:
256,64,33391,1,0,0:0:0:0:
344,112,33781,1,4,0:0:0:0:
308,192,34560,6,0,P|247:161|188:193,1,140
116,288,35144,1,8,0:0:0:0:
220,288,35534,1,4,0:0:0:0:
324,284,36118,2,0,P|376:200|324:56,1,210
256,152,37677,1,4,0:0:0:0:
136,96,39235,5,4,0:0:0:0:
212,292,39820,1,0,0:0:0:0:
256,88,40404,1,8,0:0:0:0:
396,88,40794,1,8,0:0:0:0:
316,284,41378,1,8,0:0:0:0:
240,164,41768,1,8,0:0:0:0:
80,164,42352,2,0,P|128:68|224:48,1,210,2|2,0:0|0:0,0:0:0:0:
352,48,43521,1,0,0:0:0:0:
412,152,43910,1,4,0:0:0:0:
376,264,45469,5,4,0:0:0:0:
280,256,45858,2,8,L|210:250,1,70
80,200,46638,1,0,0:0:0:0:
136,100,47027,1,4,0:0:0:0:
256,96,47417,2,8,L|325:101,1,70
420,184,48586,1,4,0:0:0:0:
348,292,49365,1,4,0:0:0:0:
152,276,50144,2,0,P|211:74|392:100,1,420
368,192,51703,6,8,P|288:208|235:146,4,140,8|8|12|8|8,0:0|0:0|0:0|0:0|0:0,0:0:0:0:
328,88,54040,1,4,0:0:0:0:
204,88,54820,2,0,P|61:222|212:320,1,420
256,192,56378,1,4,0:0:0:0:
384,192,56768,1,0,0:0:0:0:
316,80,57157,1,8,0:0:0:0:
208,44,57936,6,8,P|176:56|148:80,1,70
100,192,58521,1,0,0:0:0:0:
264,112,59105,1,4,0:0:0:0:
268,212,59495,2,8,P|312:216|327:175,1,70
436,120,60079,1,0,0:0:0:0:
412,224,60664,2,0,P|396:296|337:343,2,140
336,132,62222,2,4,L|264:108,1,70
160,72,64170,6,8,L|84:140,4,70
112,276,65729,6,8,L|184:304,4,70
264,192,67287,5,4,0:0:0:0:
392,192,68066,1,0,0:0:0:0:
440,104,68845,2,0,P|388:56|289:42,2,140
328,144,70404,2,8,L|259:156,1,70
144,200,70988,2,0,P|204:284|336:312,1,210
384,264,71962,2,8,L|436:216,1,70
388,92,72547,1,0,0:0:0:0:
180,92,73131,1,0,0:0:0:0:
104,208,73521,1,4,0:0:0:0:
220,200,75858,6,0,L|316:180,1,70
256,192,76638,12,0,81313,0:0:0:0:
