osu file format v14

[General]
AudioFilename: on the cloud.mp3
AudioLeadIn: 0
PreviewTime: 51508
Countdown: 0
SampleSet: Soft
StackLeniency: 0.7
Mode: 0
LetterboxInBreaks: 0
WidescreenStoryboard: 1

[Editor]
DistanceSpacing: 1
BeatDivisor: 4
GridSize: 8
TimelineZoom: 1

[Metadata]
Title:On The Cloud
TitleUnicode:在云端
Artist:Guan Xin
ArtistUnicode:关莘
Creator:Milo
Version:Hard
Source:云端的日子
Tags:LifeOnTheCloud Chinese
BeatmapID:784423
BeatmapSetID:356457

[Difficulty]
HPDrainRate:6
CircleSize:4
OverallDifficulty:7
ApproachRate:8
SliderMultiplier:1.4
SliderTickRate:1

[Events]
//Background and Video events
0,0,"123.png",0,0
//Break Periods
//Storyboard Layer 0 (Background)
//Storyboard Layer 1 (Fail)
//Storyboard Layer 2 (Pass)
//Storyboard Layer 3 (Foreground)
//Storyboard Sound Samples

[TimingPoints]
1833,389.61038961039,4,2,0,80,1,0
11183,-100,4,3,0,90,0,0
14300,-100,4,2,0,70,0,0
25209,-100,4,3,0,75,0,0
32612,-100,4,2,0,80,0,0
38845,-100,4,3,0,85,0,0
44690,-100,4,1,0,80,0,0
45079,-100,4,1,0,75,0,0
51313,-100,4,1,0,80,0,1
57547,-100,4,2,0,100,0,1
63781,-100,4,1,0,90,0,1
70014,-100,4,2,0,95,0,1
74300,-100,4,2,0,85,0,0

[HitObjects]
208,56,1833,6,0,P|256:56|296:88,1,70
306,157,2222,2,0,P|271:158|240:144,1,70
144,136,2612,2,0,P|129:176|144:224,2,70
232,192,3391,2,0,P|272:200|304:232,3,70
240,296,4170,1,0,0:0:0:0:
360,288,4365,1,0,0:0:0:0:
424,200,4560,1,4,0:0:0:0:
328,96,4949,5,0,0:0:0:0:
184,104,5339,1,0,0:0:0:0:
88,200,5729,1,0,0:0:0:0:
168,312,6118,1,0,0:0:0:0:
240,192,6508,6,0,P|272:168|320:192,3,70
368,176,7287,1,0,0:0:0:0:
424,224,7482,1,0,0:0:0:0:
432,296,7677,1,0,0:0:0:0:
296,264,8066,5,4,0:0:0:0:
168,200,8456,1,0,0:0:0:0:
40,136,8845,2,0,P|64:112|120:120,2,70
168,72,9625,1,0,0:0:0:0:
240,72,9820,1,0,0:0:0:0:
312,64,10014,2,0,P|344:40|392:56,1,70
368,112,10404,1,0,0:0:0:0:
400,176,10599,1,0,0:0:0:0:
432,240,10794,1,0,0:0:0:0:
256,136,11183,5,0,0:0:0:0:
120,144,11573,2,8,P|148:214|224:248,2,140
208,32,12742,2,4,L|296:24,1,70
256,136,13521,2,0,L|400:120,1,140
320,240,14300,1,4,0:0:0:0:
120,88,15469,6,0,L|200:72,1,70
256,56,15858,1,0,0:0:0:0:
256,200,16248,1,0,0:0:0:0:
184,184,16443,2,0,P|200:248|280:272,1,140
336,160,17222,2,0,L|432:144,3,70
280,80,18196,2,0,P|248:56|192:56,3,70
96,112,19170,1,4,0:0:0:0:
56,264,19755,6,0,L|144:232,1,70
184,216,20144,2,0,L|264:184,1,70
312,160,20534,1,8,0:0:0:0:
400,272,20923,1,8,0:0:0:0:
272,320,21313,1,8,0:0:0:0:
144,264,21703,1,8,0:0:0:0:
80,136,22092,2,0,P|120:72|192:88,1,140
160,216,22871,2,0,P|233:210|267:142,1,140
320,32,23651,1,0,0:0:0:0:
376,72,23845,1,0,0:0:0:0:
400,136,24040,1,0,0:0:0:0:
472,192,24820,2,0,P|420:256|340:240,1,140
304,160,26768,6,4,L|232:120,1,70
192,176,27157,2,0,L|264:216,1,70
312,248,27547,1,0,0:0:0:0:
192,320,27936,1,0,0:0:0:0:
96,216,28327,6,4,L|56:144,1,70
112,104,28716,2,0,L|160:192,1,70
184,224,29106,1,0,0:0:0:0:
256,104,29495,1,0,0:0:0:0:
392,104,29884,2,0,L|488:112,4,70
392,248,31053,1,0,0:0:0:0:
280,168,31443,2,0,L|224:96,4,70
144,120,32612,5,4,0:0:0:0:
144,32,33001,2,0,P|56:96|152:216,1,280
272,192,34170,1,4,0:0:0:0:
248,96,34560,2,0,P|336:96|352:160,1,140
376,200,35144,1,8,0:0:0:0:
288,312,35534,1,8,0:0:0:0:
88,240,36118,1,4,0:0:0:0:
112,120,37677,5,4,0:0:0:0:
248,120,38066,1,0,0:0:0:0:
384,136,38456,1,0,0:0:0:0:
424,200,38651,1,0,0:0:0:0:
392,264,38845,1,0,0:0:0:0:
256,192,39235,5,4,0:0:0:0:
256,192,40014,5,4,0:0:0:0:
120,160,40404,2,0,P|152:128|200:112,1,70
240,88,40794,2,0,P|296:64|376:72,1,140
288,184,41573,1,0,0:0:0:0:
192,288,41962,1,0,0:0:0:0:
96,184,42352,2,0,L|72:112,3,70
48,56,43131,1,4,0:0:0:0:
184,72,43521,1,0,0:0:0:0:
320,72,43910,1,8,0:0:0:0:
256,192,44300,1,0,0:0:0:0:
176,264,44690,5,4,0:0:0:0:
208,280,44787,5,4,0:0:0:0:
240,288,44884,5,4,0:0:0:0:
272,288,44982,5,4,0:0:0:0:
304,288,45079,5,4,0:0:0:0:
416,200,45469,5,4,0:0:0:0:
312,112,45858,1,0,0:0:0:0:
264,112,46053,1,0,0:0:0:0:
120,80,46638,1,8,0:0:0:0:
64,208,47027,1,0,0:0:0:0:
168,296,47417,1,0,0:0:0:0:
208,280,47612,1,8,0:0:0:0:
256,192,48196,5,0,0:0:0:0:
176,128,48586,2,8,B|256:96,1,70
304,72,48975,2,8,L|384:48,1,70
392,192,49560,1,4,0:0:0:0:
344,240,49755,1,0,0:0:0:0:
216,184,50144,2,8,L|280:136,3,70
376,48,51118,1,0,0:0:0:0:
408,112,51313,1,4,0:0:0:0:
112,256,51703,6,0,L|192:232,1,70
240,216,52092,2,0,L|320:192,1,70
248,112,52482,2,8,P|392:112|408:232,1,280
352,304,53651,1,0,0:0:0:0:
216,304,54040,1,4,0:0:0:0:
72,64,54820,6,0,L|136:96,1,70
192,128,55209,2,0,L|272:168,1,70
320,192,55599,2,8,L|416:176,2,70
200,264,56378,2,0,L|120:224,4,70
128,144,57547,1,4,0:0:0:0:
256,88,57936,6,8,P|336:80|368:144,1,140
336,264,58716,1,0,0:0:0:0:
272,248,58910,1,0,0:0:0:0:
224,200,59105,1,4,0:0:0:0:
192,64,59495,2,8,P|112:56|80:120,1,140
120,232,60274,1,0,0:0:0:0:
144,296,60469,1,0,0:0:0:0:
200,336,60664,1,4,0:0:0:0:
256,208,61053,6,0,L|336:160,4,70
352,304,62222,2,8,L|432:256,1,70
400,128,62807,1,0,0:0:0:0:
360,80,63001,1,0,0:0:0:0:
304,96,63196,1,0,0:0:0:0:
200,192,63586,1,8,0:0:0:0:
216,208,63683,1,8,0:0:0:0:
232,216,63781,1,8,0:0:0:0:
280,80,64170,6,4,L|368:104,1,70
328,168,64560,2,0,L|416:192,1,70
456,216,64949,2,8,P|448:240|384:264,2,70
336,296,65729,6,4,L|272:240,1,70
232,304,66119,2,0,L|168:248,1,70
120,224,66508,2,8,P|152:192|192:200,2,70
72,96,67287,5,4,0:0:0:0:
200,40,67677,1,0,0:0:0:0:
296,144,68066,2,8,L|376:96,1,70
416,72,68456,1,4,0:0:0:0:
360,200,68845,2,8,L|288:248,2,70
232,264,69625,2,0,P|192:240|192:192,1,70
216,152,70014,1,4,0:0:0:0:
288,32,70404,6,0,P|328:48|344:80,1,70
376,208,70988,2,0,P|349:248|304:272,1,70
200,312,71573,1,8,0:0:0:0:
96,216,71962,2,0,P|64:192|64:136,1,70
168,72,72547,2,0,L|240:40,1,70
368,72,73131,1,4,0:0:0:0:
408,208,73521,2,0,P|264:136|128:176,1,280
80,280,74690,6,0,L|160:328,1,70
264,320,75274,1,0,0:0:0:0:
328,288,75469,1,0,0:0:0:0:
464,296,75858,6,8,B|424:264|424:264|456:232|456:232|328:88,1,280
256,192,77027,12,0,81313,0:0:0:0:
