osu file format v9

[General]
AudioFilename: Nightcore-The End.mp3
AudioLeadIn: 0
PreviewTime: 39213
Countdown: 0
SampleSet: Normal
StackLeniency: 0.4
Mode: 0
LetterboxInBreaks: 0
EpilepsyWarning: 1

[Editor]
Bookmarks: 11717,39213,68347,94208,118104,140364
DistanceSpacing: 0.7
BeatDivisor: 4
GridSize: 8

[Metadata]
Title:The End (Nightcore Remix)
Artist:Groove Coverage
Creator:winber1
Version:Normal
Source:
Tags:

[Difficulty]
HPDrainRate:2
CircleSize:4
OverallDifficulty:3
ApproachRate:4
SliderMultiplier:0.7
SliderTickRate:1

[Events]
//Background and Video events
0,0,"bg.jpg"
//Break Periods
2,63310,67028
//Storyboard Layer 0 (Background)
//Storyboard Layer 1 (Fail)
//Storyboard Layer 2 (Pass)
//Storyboard Layer 3 (Foreground)
//Storyboard Sound Samples
//Background Colour Transformations
3,100,163,162,255

[TimingPoints]
1569.3637597667,327.350100932948,4,2,0,100,1,0
22192,-66.6666666666667,4,2,0,100,0,0
22519,-66.6666666666667,4,1,0,64,0,0
39213,-66.6666666666667,4,1,0,74,0,0
39541,-66.6666666666667,4,1,0,74,0,1
61964,-66.6666666666667,4,1,0,65,0,1
62127,-66.6666666666667,4,1,0,55,0,1
62291,-66.6666666666667,4,1,0,45,0,1
62455,-66.6666666666667,4,1,0,37,0,1
62618,-66.6666666666667,4,1,0,26,0,1
62782,-66.6666666666667,4,1,0,16,0,1
63109,-66.6666666666667,4,1,0,64,0,0
72275,-66.6666666666667,4,2,0,9,0,0
72439,-66.6666666666667,4,2,0,21,0,0
72603,-66.6666666666667,4,2,0,32,0,0
72766,-66.6666666666667,4,2,0,42,0,0
72930,-66.6666666666667,4,2,0,52,0,0
73094,-66.6666666666667,4,2,0,62,0,0
73257,-66.6666666666667,4,2,0,74,0,0
73421,-66.6666666666667,4,2,0,87,0,0
73585,-66.6666666666667,4,1,0,74,0,0
73586,-66.6666666666667,4,1,0,74,0,1
91262,-66.6666666666667,4,1,0,64,0,1
91916,-66.6666666666667,4,1,0,52,0,1
92571,-66.6666666666667,4,1,0,40,0,1
92735,-66.6666666666667,4,1,0,29,0,1
92898,-66.6666666666667,4,1,0,22,0,1
93227,-66.6666666666667,4,1,0,22,0,0
93880,-100,4,2,0,100,0,0
104683,-66.6666666666667,4,1,0,75,0,0
116795,-100,4,2,0,61,0,0
118104,-66.6666666666667,4,1,1,75,0,1
127599,-66.6666666666667,4,1,0,75,0,1
133818,-66.6666666666667,4,1,0,75,0,0
140365,-66.6666666666667,4,1,1,75,0,0

[Colours]
Combo1 : 255,255,255
Combo2 : 196,225,255
Combo3 : 55,160,255
Combo4 : 0,91,193

[HitObjects]
320,64,11717,1,2
320,64,12044,1,6
192,64,12535,2,0,B|192:168,1,105,0|2
114,169,13353,2,0,B|54:201|54:281|114:321|178:301,1,210,8|0
145,234,14663,2,0,B|291:233,1,140
288,160,15645,1,2
288,160,15972,2,0,B|328:170|368:180|362:254|348:268,1,140,8|2
416,304,16954,5,0
416,304,17282,2,0,B|440:240|424:192,1,105,4|0
416,80,18264,1,0
416,80,18591,2,0,B|384:20|308:33|260:80|284:144,1,210,8|0
353,117,19900,2,0,B|369:183|304:224|237:221|212:157,2,210
282,134,22192,6,0,B|256:90|256:90|184:90|184:90,3,104.999996870756,0|0|8|0
128,88,23501,2,0,B|72:88,2,52.4999984353781,8|0|4
256,240,24811,6,0,B|282:284|282:284|345:284|345:284,3,105,0|4|8|0
416,280,26120,2,0,B|468:279,2,52.4999984353781,8|0|4
256,64,27430,5,8
256,64,27757,2,0,B|208:56|144:104|144:160,2,157.499995306134,0|0|8
256,144,29066,2,0,B|256:248,1,104.999996870756,0|4
392,208,30048,5,8
360,280,30376,2,0,B|363:344|446:373|503:331|504:271,3,209.999993741512,0|8|0|8
432,272,32667,5,0
432,272,32994,1,0
392,208,33322,2,0,B|448:168,4,52.4999984353781,0|0|8|0|0
344,148,34304,6,0,B|340:83|264:44|201:94|204:159,1,209.999993741512,4|8
345,245,35613,2,0,B|341:309|265:349|202:298|205:233,1,209.999993741512,4|8
96,192,36923,6,0,B|96:88,1,104.999996870756,0|8
176,88,37577,2,0,B|176:216,1,104.999996870756,0|8
256,192,38232,1,4
256,32,38887,5,0
256,192,39541,6,0,B|472:192,1,209.999993741512,0|8
256,192,40851,2,0,B|40:192,1,209.999993741512,0|8
168,344,42160,5,0
208,272,42488,1,0
288,272,42815,2,0,B|288:48,1,209.999993741512,8|0
256,64,43633,2,0,B|144:64,1,104.999996870756
288,64,44779,6,0,B|368:72|416:136|416:208,1,209.999993741512,0|8
259,205,46088,2,0,B|179:213|131:277|131:349,1,209.999993741512,0|8
209,347,47071,1,0
288,348,47398,1,0
288,208,48053,6,0,B|408:208,2,104.999996870756,8|0|0
208,208,49035,1,4
128,208,49362,1,12
128,48,50017,6,0,B|16:48,2,104.999996870756,0|0|8
280,48,51326,2,0,B|392:48,2,104.999996870756,0|0|8
392,128,52635,6,0,B|392:240,1,104.999996870756
392,312,53290,1,8
256,312,53945,2,0,B|184:312,1,52.4999984353781
120,312,54436,1,0
184,152,55254,6,0,B|108:68,1,104.999996870756,4|0
176,24,55909,1,8
264,168,56564,6,0,B|376:168,1,104.999996870756,4|0
368,248,57218,1,8
232,328,57873,5,4
160,288,58200,1,0
88,248,58528,2,0,B|88:144,2,104.999996870756,8|0|0
256,248,59836,2,0,B|256:192,2,52.4999984353781,8|0|0
256,328,60492,5,0
256,328,60819,2,0,B|384:328,2,104.999996870756,0|0|0
256,248,61801,6,0,B|256:176,8,52.4999984353781
120,88,68348,5,0
392,88,69003,1,8
392,336,69658,1,0
120,336,70312,1,8
256,296,70967,2,0,B|256:176,3,104.999996870756,0|8|0|8
256,112,72276,6,4,B|256:56,8,52.4999984353781,12|0|12|8|12|12|12|12|4
256,256,74241,1,8
104,232,74895,5,0
256,256,75550,1,8
408,232,76205,1,0
328,104,76859,6,0,B|224:168,1,104.999996870756,8|0
160,160,77514,1,0
160,304,78169,1,8
256,192,78823,5,0
408,192,79478,2,0,B|344:192,2,52.4999984353781,8|0|0
408,272,80133,5,0
256,272,80788,2,0,B|256:216,2,52.4999984353781,8|0|0
176,272,81442,5,0
176,120,82097,2,0,B|216:160,2,52.4999984353781,8|0|0
256,120,82752,5,0
416,120,83406,2,0,B|416:176,2,52.4999984353781,8|0|0
336,120,84061,6,0,B|336:224,1,104.999996870756,0|8
280,168,84716,2,0,B|232:272,1,104.999996870756,0|8
208,192,85370,2,0,B|104:248,1,104.999996870756,0|8
136,168,86025,2,0,B|24:168,1,104.999996870756,0|8
32,240,86680,6,0,B|32:344,1,104.999996870756,0|8
88,288,87335,2,0,B|136:392,1,104.999996870756,0|8
160,312,87989,2,0,B|264:368,1,104.999996870756,0|8
232,288,88644,2,0,B|344:288,1,104.999996870756,0|8
336,208,89299,6,0,B|224:208,1,104.999996870756,0|8
152,208,89953,2,0,B|64:152,1,104.999996870756,0|8
112,88,90608,2,0,B|216:88,1,104.999996870756,0|8
296,88,91263,2,0,B|400:152,1,104.999996870756,0|8
336,208,91917,6,0,B|232:208,1,104.999996870756,0|8
201,277,92572,2,0,B|81:277,1,104.999996870756,0|8
72,347,93227,1,0
192,64,94209,5,2
192,64,94536,1,6
320,64,95027,2,0,B|320:168,1,105,0|2
398,169,95846,2,0,B|458:201|458:281|398:321|334:301,1,210,8|0
367,234,97155,2,0,B|221:233,1,140
224,160,98137,1,8
224,160,98464,2,0,B|184:170|144:180|150:254|164:268,1,140,0|2
96,304,99447,5,0
96,304,99774,2,0,B|76:244|88:192,1,105,4|0
96,80,100756,1,0
96,80,101083,2,0,B|128:20|204:33|252:80|228:144,1,210,8|0
159,117,102393,2,0,B|143:183|208:224|275:221|300:157,2,210
230,134,104684,6,0,B|256:90|256:90|328:90|328:90,3,104.999996870756,0|0|8|0
392,88,105994,2,0,B|448:88,2,52.4999984353781,8|0|0
256,240,107303,6,0,B|230:284|230:284|167:284|167:284,3,105,0|0|8|0
96,288,108612,2,0,B|44:287,2,52.4999984353781,8|0|0
256,64,109922,5,8
256,64,110249,2,0,B|304:56|368:104|368:160,2,157.499995306134,0|0|8
256,136,111558,2,0,B|256:240,1,104.999996870756
120,208,112541,5,8
152,280,112869,2,0,B|148:344|65:373|8:331|7:271,3,209.999993741512,0|8|0|8
80,272,115159,5,0
80,272,115487,1,0
128,208,115814,2,0,B|128:152,2,52.4999984353781,0|0|8
205,207,116469,1,0
256,272,116796,6,4,B|256:352,3,70
176,336,118105,6,0,B|56:336,1,104.999996870756,0|8
72,256,118760,1,0
72,96,119415,6,0,B|200:96,1,104.999996870756,0|8
176,176,120070,1,0
312,96,120724,6,0,B|416:96,1,104.999996870756,0|8
416,176,121379,1,0
368,336,122034,6,0,B|304:336,1,52.4999984353781
232,336,122525,1,0
368,216,123343,6,0,B|332:164|372:100,1,104.999996870756,0|8
368,40,123998,1,0
294,70,124325,1,8
216,56,124653,6,0,B|120:120,1,104.999996870756,0|8
96,184,125307,2,0,B|92:232|116:268|172:276,1,104.999996870756,0|8
216,256,125962,6,0,B|220:304|195:340|140:348,1,104.999996870756,0|8
90,340,126617,2,0,B|34:308|46:248,2,104.999996870756,0|8|0
174,341,127599,1,12
256,341,127926,1,12
256,176,128581,5,4
181,212,128908,1,8
112,176,129235,2,0,B|112:56,1,104.999996870756,0|8
192,72,129890,6,0,B|300:72,1,104.999996870756,0|8
376,72,130545,2,0,B|376:176,1,104.999996870756,0|8
376,256,131200,5,0
376,256,131527,1,8
316,311,131854,1,0
256,256,132182,1,8
256,256,132509,2,0,B|128:256,2,104.999996870756,0|8|0
256,64,133818,5,0
336,64,134146,1,8
392,128,134473,1,0
256,192,135128,5,0
176,192,135455,1,8
120,136,135782,1,0
256,112,136437,5,0
256,192,136764,1,8
256,272,137092,1,0
256,352,137419,1,0
256,272,137747,1,0
256,112,138401,6,0,B|256:56,2,52.4999984353781,0|0|8
256,192,139056,12,4,140365
