osu file format v9

[General]
AudioFilename: Nightcore-The End.mp3
AudioLeadIn: 0
PreviewTime: 39213
Countdown: 0
SampleSet: Normal
StackLeniency: 0.4
Mode: 0
LetterboxInBreaks: 0
EpilepsyWarning: 1

[Editor]
Bookmarks: 11717,39213,68347,94208,118104,140364
DistanceSpacing: 1.2
BeatDivisor: 4
GridSize: 8

[Metadata]
Title:The End (Nightcore Remix)
Artist:Groove Coverage
Creator:winber1
Version:Insane
Source:
Tags:

[Difficulty]
HPDrainRate:6
CircleSize:4
OverallDifficulty:7
ApproachRate:8
SliderMultiplier:1.4
SliderTickRate:1

[Events]
//Background and Video events
0,0,"bg.jpg"
//Break Periods
2,63311,67597
//Storyboard Layer 0 (Background)
//Storyboard Layer 1 (Fail)
//Storyboard Layer 2 (Pass)
//Storyboard Layer 3 (Foreground)
//Storyboard Sound Samples
//Background Colour Transformations
3,100,163,162,255

[TimingPoints]
1569.3637597667,327.350100932948,4,2,0,100,1,0
22519,-100,4,1,0,64,0,0
39213,-66.6666666666667,4,1,0,74,0,0
39540,-66.6666666666667,4,1,0,74,0,1
59182,-66.6666666666667,4,1,0,74,0,1
59346,-66.6666666666667,4,1,0,60,0,1
59510,-66.6666666666667,4,1,0,37,0,1
59674,-66.6666666666667,4,1,0,23,0,1
60165,-66.6666666666667,4,1,0,63,0,1
61964,-66.6666666666667,4,1,1,65,0,1
62127,-66.6666666666667,4,1,1,55,0,1
62291,-66.6666666666667,4,1,1,45,0,1
62455,-66.6666666666667,4,1,1,37,0,1
62618,-66.6666666666667,4,1,1,26,0,1
62782,-66.6666666666667,4,1,1,16,0,1
63109,-66.6666666666667,4,1,1,64,0,0
72275,-66.6666666666667,4,2,0,9,0,0
72439,-66.6666666666667,4,2,0,21,0,0
72603,-66.6666666666667,4,2,0,32,0,0
72766,-66.6666666666667,4,2,0,42,0,0
72930,-66.6666666666667,4,2,0,52,0,0
73094,-66.6666666666667,4,2,0,62,0,0
73257,-66.6666666666667,4,2,0,74,0,0
73421,-66.6666666666667,4,2,0,87,0,0
73585,-66.6666666666667,4,1,1,74,0,1
91262,-66.6666666666667,4,1,1,64,0,1
91916,-66.6666666666667,4,1,1,52,0,1
92571,-66.6666666666667,4,1,1,40,0,1
92735,-66.6666666666667,4,1,1,29,0,1
92898,-66.6666666666667,4,1,1,22,0,1
93226,-66.6666666666667,4,1,1,22,0,0
93880,-100,4,2,0,100,0,0
104683,-100,4,1,0,75,0,0
116795,-100,4,2,0,61,0,0
118104,-66.6666666666667,4,1,1,75,0,1
128579,-66.6666666666667,4,1,0,75,0,1
133818,-66.6666666666667,4,1,1,75,0,0
139711,-66.6666666666667,4,2,0,75,0,0
140364,-66.6666666666667,4,1,1,75,0,0

[Colours]
Combo1 : 255,255,255
Combo2 : 196,225,255
Combo3 : 55,160,255
Combo4 : 0,91,193

[HitObjects]
448,192,11717,1,2
448,192,12044,1,6
372,52,12535,1,0
296,192,13027,1,2
316,304,13353,2,0,B|304:280|256:260|208:280|196:304,1,140,8|0
460,120,14336,5,2
460,120,14663,2,0,B|448:80|396:80|372:120|372:152|372:152|296:152,1,210,0|2
120,148,15645,1,8
120,148,15972,1,2
24,296,16954,5,0
64,236,17118,1,2
104,296,17282,1,4
268,296,17773,1,0
268,132,18264,1,0
268,132,18591,2,0,B|272:112|225:59|160:83|148:113,1,140,8|0
202,158,19573,5,0
96,72,19900,2,0,B|184:-8|288:72|392:176|488:72,1,420,8|2
444,204,21209,2,0,B|507:229|515:309|460:359|394:341,1,209.999993741512,2|8
64,124,22192,6,0,B|120:124|120:124|144:152|144:152|200:152,1,140,0|4
256,80,22683,2,0,B|256:44,2,35,0|0|8
352,80,23010,2,0,B|412:80,2,35,0|0|0
304,160,23338,1,0
380,216,23501,1,8
324,292,23665,1,0
248,236,23829,1,4
448,124,24811,6,0,B|392:124|392:124|368:152|368:152|312:152,1,140,0|4
256,80,25302,2,0,B|256:44,2,35,0|0|8
160,80,25629,2,0,B|100:80,2,35
208,160,25956,1,0
132,216,26120,1,8
188,292,26284,1,0
264,236,26447,1,4
312,168,27430,5,8
364,252,27593,1,0
412,168,27757,2,0,B|412:112|376:72|316:64,1,140,0|8
232,68,28248,1,0
204,68,28330,1,0
176,68,28412,1,0
120,164,28575,1,0
144,164,28657,1,0
168,164,28739,1,8
236,236,28903,1,0
236,236,29066,1,0
236,236,29394,1,4
56,192,30048,5,8
152,68,30376,2,0,B|92:92|92:180|148:220|208:196,2,210,0|0|8
152,68,31521,1,0
185,130,31685,2,0,B|248:115|299:187|276:252|213:267,1,210,0|0
256,64,32503,5,0
256,64,32667,1,8
256,64,32831,1,0
256,64,32994,1,0
388,88,33158,5,0
400,116,33240,1,0
412,144,33322,1,8
124,88,33485,1,0
112,116,33567,1,0
100,144,33649,1,0
256,192,33813,1,0
256,192,33895,1,0
256,192,33977,1,8
308,276,34140,6,0,B|316:296,4,17.5
168,176,34468,2,0,B|152:160,4,17.5,0|0|0|0|8
340,176,34795,2,0,B|356:156,4,17.5
200,276,35122,2,0,B|192:296,4,17.5,0|0|0|0|8
256,112,35450,2,0,B|256:96,4,17.5
344,308,35777,6,0,B|352:328,4,17.5,0|0|0|0|8
128,144,36104,2,0,B|112:128,4,17.5
384,144,36432,2,0,B|400:128,4,17.5,0|0|0|0|8
168,308,36759,2,0,B|160:328,4,17.5
256,60,37086,2,0,B|256:44,4,17.5,0|0|0|0|8
256,324,37414,6,0,B|256:340,4,17.5
256,60,37741,2,0,B|256:44,4,17.5,0|0|0|0|8
256,188,38068,1,0
140,60,38723,5,0
372,60,38887,1,0
256,312,39214,5,0
256,312,39378,1,0
256,312,39541,1,4
168,256,39705,1,0
128,256,39787,1,0
88,256,39869,1,8
72,144,40033,1,0
92,36,40196,2,0,B|200:36,1,104.999996870756
420,36,40524,2,0,B|304:36,1,104.999996870756,8|0
256,240,40851,2,0,B|256:132,1,104.999996870756,4|0
256,36,41178,5,8
256,36,41342,1,0
336,96,41506,1,0
388,184,41669,1,0
380,220,41751,1,0
372,260,41833,1,8
284,320,41997,1,0
176,320,42160,2,0,B|72:320,1,104.999996870756,4|0
312,192,42488,2,0,B|444:192,1,104.999996870756,8|0
176,64,42815,2,0,B|48:64,1,104.999996870756
108,192,43142,5,8
256,264,43306,1,0
408,192,43470,1,0
408,192,43633,1,0
408,192,43961,1,0
408,64,44452,5,0
408,64,44615,1,0
408,64,44779,1,4
300,64,44943,1,0
264,64,45025,1,0
228,64,45106,1,8
120,64,45270,1,0
60,160,45434,2,0,B|164:200,1,104.999996870756
452,160,45761,2,0,B|348:200,1,104.999996870756,8|0
256,108,46088,2,0,B|256:220,1,104.999996870756,4|0
256,320,46416,5,8
256,320,46580,1,0
352,272,46743,1,0
444,216,46907,1,0
436,176,46989,1,0
428,140,47071,1,8
324,112,47234,1,0
208,112,47398,5,4
92,112,47562,1,0
208,112,47725,1,8
124,196,47889,1,0
208,112,48053,1,0
208,228,48216,1,0
208,112,48380,1,8
288,196,48544,1,0
412,192,48707,5,4
472,72,48871,1,0
344,16,49035,1,8
284,132,49198,1,0
168,204,49362,5,0
168,348,49526,1,0
24,348,49689,1,8
24,204,49853,1,0
168,76,50017,6,0,B|48:76,1,104.999996870756,4|0
272,76,50344,2,0,B|156:76,1,104.999996870756,8|0
376,76,50671,2,0,B|248:76,1,104.999996870756
452,132,50999,2,0,B|448:104|432:84|412:76|368:76,1,104.999996870756,8|0
452,248,51326,5,4
352,316,51490,1,0
452,248,51653,1,8
352,176,51817,1,0
256,108,51981,6,0,B|256:0,1,104.999996870756
256,276,52308,2,0,B|256:384,1,104.999996870756,8|0
160,208,52635,5,0
60,136,52799,1,0
160,68,52963,1,8
60,136,53127,1,0
160,208,53290,5,0
208,324,53454,1,0
256,208,53618,1,8
304,324,53781,1,0
352,208,53945,1,4
352,208,54109,1,0
352,208,54436,1,0
256,76,54927,5,0
256,76,55091,1,0
180,124,55254,2,0,B|104:40,1,104.999996870756,4|0
332,124,55582,2,0,B|408:40,1,104.999996870756,8|0
332,260,55909,2,0,B|408:344,1,104.999996870756
180,260,56236,2,0,B|104:344,1,104.999996870756,8|0
72,192,56564,6,0,B|184:192,1,104.999996870756,4|0
256,8,56891,2,0,B|256:120,1,104.999996870756,8|0
440,192,57218,2,0,B|328:192,1,104.999996870756,0|0
256,376,57546,2,0,B|256:264,1,104.999996870756,8|0
256,192,57873,1,4
256,192,58037,1,0
256,192,58200,1,8
256,192,58364,1,0
256,88,58528,6,0,B|256:32,7,52.4999984353781,0|0|0|0|8|0|0|0
288,88,59182,2,0,B|320:88,16,26.2499992176891,4|0|0|0|0|0|0|0|8|0|0|0|0|0|0|0|0
256,332,60165,5,8
256,52,60492,1,0
256,332,60819,1,8
256,332,61147,1,0
256,332,61474,1,8
256,332,61801,5,0
408,272,61965,1,0
408,112,62129,1,0
256,52,62292,1,0
104,112,62456,1,0
104,272,62620,1,0
256,332,62783,1,0
256,192,62947,1,0
256,192,63111,5,0
188,124,68348,5,0
324,124,68676,1,0
324,260,69003,1,8
188,260,69330,1,0
32,32,69658,5,0
480,32,69985,1,0
480,352,70312,1,8
32,352,70640,1,0
256,128,70967,5,0
328,192,71131,1,0
256,256,71294,1,8
192,192,71458,1,0
256,96,71622,5,0
360,192,71785,1,0
256,288,71949,1,8
160,192,72113,1,0
256,192,72276,6,4,B|256:160,31,26.2499992176891,12|4|4|4|12|4|4|4|12|4|4|4|12|4|4|12|4|4|4|4|12|4|4|12|4|4|4|4|12|4|4|4
308,192,73586,5,0
388,116,73750,1,0
416,220,73913,1,8
308,192,74077,1,0
204,192,74241,5,0
124,116,74404,1,0
96,220,74568,1,8
204,192,74732,1,0
192,44,74895,6,0,B|52:44,1,104.999996870756
272,88,75223,2,0,B|156:156,1,104.999996870756,8|0
364,96,75550,2,0,B|300:216,1,104.999996870756
452,64,75877,2,0,B|452:196,1,104.999996870756,8|0
320,340,76205,6,0,B|460:340,1,104.999996870756
240,296,76532,2,0,B|356:228,1,104.999996870756,8|0
148,288,76859,2,0,B|212:168,1,104.999996870756
60,320,77187,2,0,B|60:188,1,104.999996870756,8|0
60,116,77514,5,0
136,40,77678,1,0
212,116,77841,1,8
136,192,78005,1,0
212,264,78169,5,0
212,116,78332,1,0
356,116,78496,1,8
356,264,78660,1,0
436,264,78823,5,0
392,196,78987,1,0
316,196,79151,1,8
280,264,79315,1,0
244,332,79478,1,0
168,332,79642,1,0
168,332,79724,2,0,B|96:332|80:252,1,104.999996870756,8|0
88,244,79969,1,8
32,188,80133,5,0
76,120,80297,1,0
152,120,80460,1,8
188,188,80624,1,0
226,121,80788,1,0
300,120,80951,1,0
300,120,81033,2,0,B|372:120|388:40,1,104.999996870756,8|0
384,32,81279,1,8
464,32,81442,5,0
464,148,81606,1,0
396,244,81770,1,8
332,148,81933,1,0
268,244,82097,1,0
152,244,82261,1,0
152,244,82343,1,8
152,128,82506,1,0
152,128,82588,1,8
256,76,82752,5,0
256,192,82915,1,0
256,76,83079,1,8
368,44,83243,1,0
456,116,83406,1,0
456,116,83488,2,0,B|456:220,1,104.999996870756,8|0
456,252,83734,2,0,B|352:328,1,104.999996870756,8|0
256,312,84061,5,0
256,312,84225,1,0
124,252,84388,1,8
124,252,84552,1,0
120,104,84716,1,0
256,44,84879,1,0
256,44,84961,1,8
256,192,85125,1,0
256,192,85207,1,8
344,172,85370,5,0
344,172,85534,1,0
212,240,85698,1,8
212,240,85862,1,0
72,176,86025,1,0
212,116,86189,1,0
212,116,86271,1,8
344,48,86434,1,0
344,48,86516,1,8
424,36,86680,5,0
400,180,86844,1,0
256,204,87007,1,8
112,180,87171,1,0
88,36,87335,1,0
232,60,87498,1,0
232,60,87580,1,8
256,204,87744,1,0
256,204,87826,1,8
340,308,87989,5,0
176,308,88153,1,0
360,308,88317,1,8
156,308,88480,1,0
256,232,88644,1,0
256,232,88726,2,0,B|256:120,1,104.999996870756,8|0
256,96,88971,2,0,B|384:96,1,104.999996870756,8|0
344,208,89299,5,0
256,324,89462,1,0
116,280,89626,1,8
116,132,89790,1,0
256,96,89953,1,0
216,240,90117,1,0
216,240,90199,1,8
116,132,90363,1,0
116,132,90444,1,8
72,24,90608,6,0,B|176:24,1,104.999996870756
440,24,90935,2,0,B|320:24,1,104.999996870756,8|0
112,100,91263,2,0,B|232:100,1,104.999996870756
252,100,91508,1,8
404,100,91672,2,0,B|404:152,1,52.4999984353781,0|8
144,152,91917,6,0,B|248:152,1,104.999996870756
360,184,92245,2,0,B|240:184,1,104.999996870756,8|0
192,244,92572,1,0
324,268,92736,1,0
324,268,92818,1,8
228,312,92981,1,0
228,312,93063,1,8
270,372,93227,1,0
64,192,94209,5,2
64,192,94536,1,6
140,52,95027,1,0
216,192,95519,1,2
196,304,95845,2,0,B|208:280|256:260|304:280|316:304,1,140,8|0
52,120,96828,5,2
52,120,97155,2,0,B|64:80|116:80|140:120|140:152|140:152|216:152,1,210,0|2
392,148,98137,1,8
392,148,98464,1,2
488,296,99446,5,0
448,236,99610,1,2
408,296,99774,1,4
244,296,100265,1,0
244,132,100756,1,0
244,132,101083,2,0,B|247:107|286:59|351:83|363:113,1,140,8|0
310,158,102065,5,0
416,72,102393,2,0,B|328:-8|224:72|120:176|24:72,1,420,8|2
68,204,103701,2,0,B|5:229|-3:309|52:359|118:341,1,209.999993741512,2|8
448,260,104684,6,0,B|392:260|392:260|368:232|368:232|312:232,1,140,0|4
256,304,105175,2,0,B|256:340,2,35,0|0|8
160,304,105503,2,0,B|116:304,2,35
96,100,105994,1,8
148,184,106157,1,0
200,100,106321,1,0
64,260,107303,6,0,B|120:260|120:260|144:232|144:232|200:232,1,140,0|4
256,304,107794,2,0,B|256:340,2,35,0|0|8
352,304,108121,2,0,B|396:304,2,35
416,100,108612,1,8
364,184,108776,1,0
312,100,108940,1,0
200,216,109922,5,8
148,132,110085,1,0
100,216,110249,2,0,B|100:272|136:312|196:320,1,140,0|8
280,316,110740,1,0
308,316,110822,1,0
336,316,110904,1,0
392,220,111067,1,0
368,220,111149,1,0
344,220,111231,1,8
276,148,111395,1,0
276,148,111558,1,0
276,148,111886,1,4
456,192,112541,5,8
360,316,112868,2,0,B|420:292|420:204|364:164|304:188,2,210,0|0|8
360,316,114014,1,0
327,254,114177,2,0,B|264:269|213:197|236:132|299:117,1,210
256,320,114996,5,0
256,320,115159,1,8
288,232,115323,1,0
288,232,115487,1,0
200,204,115650,1,0
168,292,115814,1,8
136,288,115896,1,0
108,276,115978,1,0
88,252,116060,1,0
76,224,116141,1,0
76,192,116223,1,0
88,160,116305,1,0
104,128,116387,1,0
132,108,116469,1,8
168,100,116551,1,0
200,104,116632,1,0
232,116,116714,1,0
256,136,116796,5,4
256,136,117123,1,4
256,136,117451,1,4
256,136,117778,1,4
256,40,118105,5,0
256,40,118269,1,0
256,40,118433,1,8
368,40,118597,1,0
404,40,118678,1,0
440,40,118760,1,0
444,148,118924,1,0
444,252,119088,1,8
444,252,119251,1,0
344,252,119415,6,0,B|344:144,1,105
256,256,119742,2,0,B|256:140,1,104.999996870756,8|0
172,256,120070,2,0,B|172:136,1,104.999996870756
172,116,120315,1,0
172,80,120397,2,0,B|114:65|48:80,1,104.999996870756,8|0
44,224,120724,6,0,B|108:244|96:324,1,104.999996870756
176,276,121052,2,0,B|138:220|198:165,1,104.999996870756,8|0
104,164,121379,1,0
172,116,121543,1,0
208,48,121706,2,0,B|272:76|244:164,1,104.999996870756,8|0
256,212,122034,1,0
256,212,122197,1,0
256,212,122525,1,0
444,176,123016,5,0
444,176,123179,1,0
444,176,123343,2,0,B|381:170|357:98,1,104.999996870756
384,36,123670,1,8
308,56,123834,2,0,B|212:112,1,104.999996870756
140,72,124161,1,0
140,212,124325,1,8
276,212,124489,1,0
324,280,124653,6,0,B|228:344,1,104.999996870756
160,352,124980,2,0,B|156:304|180:268|236:260,1,104.999996870756,8|0
180,192,125307,1,0
112,224,125471,2,0,B|116:272|91:308|36:316,1,104.999996870756,0|8
36,240,125798,1,0
36,160,125962,1,0
100,108,126126,1,0
176,104,126289,1,8
252,104,126453,1,0
280,176,126617,6,0,B|336:144|324:84,2,104.999996870756,0|0|8
336,232,127108,1,0
412,232,127271,1,0
324,88,127435,5,0
412,232,127599,1,8
256,304,127762,1,0
148,148,127926,5,0
336,232,128090,1,0
176,232,128253,1,8
364,152,128417,1,0
256,80,128581,5,4
352,80,128744,1,0
378,109,128826,1,0
404,136,128908,1,8
408,224,129072,1,0
356,328,129235,6,0,B|356:208,1,104.999996870756
256,28,129563,2,0,B|256:152,1,104.999996870756,8|0
160,328,129890,2,0,B|160:220,1,104.999996870756
64,184,130217,5,8
204,188,130381,1,0
204,48,130545,1,0
332,120,130708,1,0
368,120,130790,1,0
404,120,130872,1,8
408,248,131036,1,0
256,328,131200,5,0
256,328,131363,1,0
120,268,131527,1,8
120,268,131691,1,0
116,120,131854,1,0
116,120,132018,1,0
256,56,132182,1,8
256,56,132345,1,0
256,196,132509,1,0
256,196,132673,1,0
256,196,133000,1,0
256,328,133491,5,8
256,328,133655,1,0
256,328,133818,1,0
352,108,134146,1,8
404,168,134309,1,0
160,108,134637,1,0
108,168,134800,1,8
104,328,135128,5,0
408,328,135455,1,8
356,268,135619,1,0
212,44,135946,1,0
264,108,136110,1,8
148,200,136437,5,0
212,252,136601,1,0
300,252,136764,1,8
364,200,136928,1,0
48,40,137255,1,0
48,120,137419,1,8
168,328,137747,5,0
256,328,137910,1,0
344,328,138074,1,8
256,328,138238,1,0
256,40,138565,1,0
256,120,138729,1,8
256,192,138892,12,4,140365
