osu file format v9

[General]
AudioFilename: Nightcore-The End.mp3
AudioLeadIn: 0
PreviewTime: 39213
Countdown: 0
SampleSet: Normal
StackLeniency: 0.4
Mode: 0
LetterboxInBreaks: 0
EpilepsyWarning: 1

[Editor]
Bookmarks: 11717,39213,68347,94208,118104,140364
DistanceSpacing: 0
BeatDivisor: 4
GridSize: 8

[Metadata]
Title:The End (Nightcore Remix)
Artist:Groove Coverage
Creator:winber1
Version:Hard
Source:
Tags:

[Difficulty]
HPDrainRate:5
CircleSize:4
OverallDifficulty:5
ApproachRate:7
SliderMultiplier:1.1
SliderTickRate:1

[Events]
//Background and Video events
0,0,"bg.jpg"
//Break Periods
2,63310,67448
//Storyboard Layer 0 (Background)
//Storyboard Layer 1 (Fail)
//Storyboard Layer 2 (Pass)
//Storyboard Layer 3 (Foreground)
//Storyboard Sound Samples
//Background Colour Transformations
3,100,163,162,255

[TimingPoints]
1569,327.350100932948,4,2,0,100,1,0
22519,-100,4,1,0,64,0,0
39540,-66.6666666666667,4,1,0,74,0,1
61964,-66.6666666666667,4,1,0,65,0,1
62127,-66.6666666666667,4,1,0,55,0,1
62291,-66.6666666666667,4,1,0,45,0,1
62455,-66.6666666666667,4,1,0,37,0,1
62618,-66.6666666666667,4,1,0,26,0,1
62782,-66.6666666666667,4,1,0,16,0,1
63109,-66.6666666666667,4,1,0,64,0,0
72275,-66.6666666666667,4,2,0,9,0,0
72439,-66.6666666666667,4,2,0,21,0,0
72603,-66.6666666666667,4,2,0,32,0,0
72766,-66.6666666666667,4,2,0,42,0,0
72930,-66.6666666666667,4,2,0,52,0,0
73094,-66.6666666666667,4,2,0,62,0,0
73257,-66.6666666666667,4,2,0,74,0,0
73421,-66.6666666666667,4,2,0,87,0,0
73585,-66.6666666666667,4,1,0,74,0,1
91262,-66.6666666666667,4,1,0,64,0,1
91916,-66.6666666666667,4,1,0,52,0,1
92571,-66.6666666666667,4,1,0,40,0,1
92735,-66.6666666666667,4,1,0,29,0,1
92898,-66.6666666666667,4,1,0,22,0,1
93226,-66.6666666666667,4,1,0,22,0,0
93880,-100,4,2,0,100,0,0
104683,-100,4,1,0,75,0,0
116795,-100,4,2,0,61,0,0
118104,-66.6666666666667,4,1,0,75,0,1
133817,-66.6666666666667,4,1,0,75,0,0
140283,-66.6666666666667,4,1,1,75,0,0

[Colours]
Combo1 : 255,255,255
Combo2 : 196,225,255
Combo3 : 55,160,255
Combo4 : 0,91,193

[HitObjects]
104,80,11716,1,2
104,80,12044,1,6
208,144,12535,1,0
104,216,13026,2,0,B|63:259|80:320,2,110,2|8|0
280,160,14335,5,0
280,160,14663,2,0,B|288:112|336:96|384:112|392:168|392:168|392:224,1,220,2|0
392,296,15645,1,8
392,296,15972,1,0
72,264,16954,5,0
72,264,17281,1,4
160,352,17772,1,0
248,264,18263,1,0
248,264,18591,2,0,B|291:223|352:240,1,110,8|0
215,156,19573,5,0
215,73,19900,2,0,B|327:57|416:152,1,220,8|2
412,148,20882,2,0,B|392:184|392:224|413:265,1,110,8|0
112,128,22192,6,0,B|152:128|152:128|185:156|185:156|232:156,1,110,0|4
256,80,22683,2,0,B|256:16,1,55,0|8
344,80,23010,2,0,B|408:80,1,55
344,168,23337,2,0,B|344:232,3,55,0|8|4|4
400,128,24810,6,0,B|360:128|360:128|327:156|327:156|280:156,1,110,0|4
256,80,25301,2,0,B|256:16,1,55,0|8
168,80,25629,2,0,B|104:80,1,55
168,168,25956,2,0,B|168:232,3,55,0|8|4|4
408,168,27429,5,8
408,168,27757,2,0,B|384:184|312:152|280:176,1,110,0|8
259,96,28248,1,0
176,82,28411,1,0
118,146,28575,1,0
158,221,28739,1,8
240,232,28902,1,0
240,232,29066,1,0
240,232,29393,1,4
56,192,30048,5,8
56,192,30375,2,0,B|32:224|43:289|112:296|139:266,2,165,0|0|8
200,192,31685,2,0,B|272:224|360:160|344:72,1,220,0|0
256,80,32503,6,0,B|256:24,4,55,0|8|0|0|0
176,72,33321,5,8
112,120,33485,1,0
120,200,33649,1,0
192,232,33812,1,0
184,152,33976,1,8
256,160,34140,6,0,B|256:112,2,27.5
344,184,34467,2,0,B|360:164,2,27.5,0|0|8
344,272,34795,2,0,B|392:272,2,27.5,0|0|0
264,304,35122,2,0,B|264:336,2,27.5,0|0|8
208,240,35449,2,0,B|192:260,2,27.5
256,160,35777,6,0,B|256:112,2,27.5,0|0|8
160,160,36104,2,0,B|160:112,2,27.5
160,256,36431,2,0,B|160:304,2,27.5,0|0|8
256,256,36759,2,0,B|256:304,2,27.5
256,160,37086,2,0,B|256:112,2,27.5,0|0|8
352,160,37413,6,0,B|352:112,2,27.5
352,256,37741,2,0,B|352:304,2,27.5,0|0|8
256,288,38068,1,0
256,104,38723,5,0
256,104,38886,1,0
256,288,39214,5,0
256,104,39541,1,4
336,104,39705,2,0,B|336:56,2,41.2499987706542,0|0|8
408,152,40032,1,0
480,200,40196,2,0,B|480:308,3,82.4999975413085,0|0|8|0
400,320,40851,2,0,B|400:212,1,82.4999975413085,4|0
312,240,41178,6,0,B|264:240|216:208,1,82.4999975413085,8|0
160,240,41505,1,0
208,304,41669,2,0,B|256:304|304:336,1,82.4999975413085,0|8
286,325,41996,1,0
312,240,42160,2,0,B|312:152,1,82.4999975413085,4|0
376,112,42487,2,0,B|304:48|208:80,1,164.999995082617,8|0
157,204,43142,2,0,B|229:268|325:236,1,164.999995082617,8|0
310,240,43633,1,0
310,240,43960,1,0
408,64,44451,5,0
408,64,44615,1,0
408,64,44779,1,4
320,64,44942,2,0,B|320:112,2,41.2499987706542,0|0|8
232,64,45270,1,0
168,128,45433,2,0,B|272:168,3,82.4999975413085,0|0|8|0
320,200,46088,2,0,B|224:240,1,82.4999975413085,4|0
168,264,46415,6,0,B|128:248|128:248|96:224,1,82.4999975413085,8|0
16,224,46743,1,0
40,304,46906,2,0,B|80:320|80:320|112:344,1,82.4999975413085,0|8
192,344,47234,1,0
256,288,47398,5,4
472,192,47725,1,8
256,88,48052,1,0
40,192,48380,1,8
128,192,48543,1,0
216,192,48707,6,0,B|264:192|312:240,1,82.4999975413085
408,144,49034,2,0,B|360:144|304:104,1,82.4999975413085,8|0
256,88,49362,2,0,B|152:88,3,82.4999975413085,0|0|8|0
88,88,50016,5,4
88,256,50344,2,0,B|132:263|132:263|176:256,1,82.4999975413085,8|0
256,256,50671,2,0,B|280:160|384:168,1,164.999995082617,0|8
376,167,51162,1,0
464,168,51326,1,4
256,112,51653,5,8
256,112,51817,1,0
256,112,51980,2,0,B|232:208|128:200,1,164.999995082617,0|8
48,200,52471,1,0
136,200,52635,2,0,B|232:216|256:304,1,164.999995082617,0|8
432,304,53290,2,0,B|432:112,1,164.999995082617,0|8
256,192,53945,1,4
256,192,54108,1,0
256,192,54436,1,0
256,48,54927,5,0
336,80,55090,1,0
416,112,55254,2,0,B|432:192|432:192|416:272,1,164.999995082617,0|8
336,272,55745,1,0
256,272,55909,2,0,B|216:320|152:320|112:272,1,164.999995082617,0|8
112,192,56400,1,0
192,192,56563,6,0,B|192:96,1,82.4999975413085
272,192,56891,2,0,B|272:96,1,82.4999975413085,8|0
353,110,57218,2,0,B|401:150|401:214|353:254,1,164.999995082617,0|8
272,280,57709,1,0
192,280,57873,1,0
152,208,58036,1,0
176,128,58200,1,8
256,128,58364,2,0,B|256:72,10,41.2499987706542,0|0|0|0|0|0|8|0|0|0|4
256,344,60164,5,0
256,344,60492,1,0
472,192,60819,1,0
256,40,61146,1,0
40,192,61474,1,0
256,264,61801,5,0
328,232,61965,1,0
328,152,62128,1,0
256,120,62292,1,0
184,152,62456,1,0
184,232,62619,1,0
256,264,62783,1,0
256,40,63110,5,0
188,124,68348,5,0
324,260,69003,1,8
432,80,69657,5,0
80,304,70312,1,8
256,128,70967,5,0
256,256,71294,1,8
256,48,71621,5,0
256,336,71949,1,8
256,192,72276,6,4,B|256:160,32,20.6249993853271,12|4|4|4|4|4|4|12|4|4|4|12|4|4|4|12|4|4|4|12|4|4|4|12|4|4|4|4|12|4|4|4|12
416,192,73913,5,8
408,104,74077,1,0
336,152,74240,1,0
256,120,74404,1,0
184,152,74568,1,8
120,112,74731,1,0
112,192,74895,6,0,B|112:280,3,82.4999975413085,0|0|8|0
206,295,75550,2,0,B|310:295,3,82.4999975413085,0|0|8|0
376,264,76204,6,0,B|376:144,3,82.4999975413085,0|0|8|0
288,136,76859,2,0,B|288:240,3,82.4999975413085,0|0|8|0
208,224,77514,6,0,B|168:208|168:208|136:184,1,82.4999975413085
176,120,77841,2,0,B|215:136|215:136|248:160,1,82.4999975413085,8|0
288,88,78168,2,0,B|384:88,1,82.4999975413085
405,162,78496,2,0,B|301:162,1,82.4999975413085,8|0
368,232,78823,6,0,B|344:272|344:328,1,82.4999975413085,4|0
264,288,79150,2,0,B|288:248|288:192,1,82.4999975413085,8|0
208,224,79478,1,0
144,272,79641,1,0
96,208,79805,1,8
160,160,79969,1,0
88,128,80133,6,0,B|104:80|184:72,1,82.4999975413085
225,114,80460,2,0,B|200:156|129:169,1,82.4999975413085,8|0
172,245,80787,1,0
96,208,80951,1,0
56,280,81115,2,0,B|67:325|106:364,1,82.4999975413085,8|0
176,352,81442,6,0,B|220:364|274:350,1,82.4999975413085,0|0
336,352,81769,2,0,B|320:312|336:264,1,82.4999975413085,8|0
352,192,82097,2,0,B|368:152|368:152|368:96,1,82.4999975413085,0|0
296,104,82424,1,8
255,171,82588,1,0
256,248,82751,6,0,B|211:260|157:246,1,82.4999975413085
174,174,83079,2,0,B|218:161|272:175,1,82.4999975413085,8|0
337,173,83406,1,0
296,104,83570,1,0
216,104,83733,2,0,B|216:200,1,82.4999975413085,8|0
256,248,84061,6,0,B|216:264|216:264|184:288,1,82.4999975413085,4|0
224,352,84388,2,0,B|263:336|263:336|296:312,1,82.4999975413085,8|0
376,312,84715,2,0,B|472:312,1,82.4999975413085
460,233,85043,2,0,B|356:233,1,82.4999975413085,8|0
336,176,85370,6,0,B|312:136|312:80,1,82.4999975413085,4|0
232,128,85697,2,0,B|256:168|256:224,1,82.4999975413085,8|0
256,288,86025,1,0
176,288,86189,1,0
96,288,86352,1,8
96,208,86516,1,0
96,128,86680,6,0,B|112:80|192:72,1,82.4999975413085,4|0
232,128,87007,2,0,B|216:176|141:192,1,82.4999975413085,8|0
96,208,87334,1,0
96,208,87498,1,0
56,280,87662,2,0,B|67:325|106:364,1,82.4999975413085,8|0
176,352,87989,6,0,B|220:364|274:350,1,82.4999975413085,4|0
336,352,88316,2,0,B|320:312|336:264,1,82.4999975413085,8|0
384,208,88644,1,0
384,128,88808,1,0
312,168,88970,2,0,B|272:152|272:152|216:152,1,82.4999975413085,8|0
176,208,89298,5,4
144,280,89462,2,0,B|103:271|103:271|80:232,1,82.4999975413085,0|8
80,152,89789,2,0,B|92:116|92:116|152:104,1,82.4999975413085,4|0
216,104,90117,1,0
296,104,90280,2,0,B|400:104,1,82.4999975413085,8|0
440,24,90608,6,0,B|336:24,1,82.4999975413085,4|0
280,24,90935,2,0,B|160:24,1,82.4999975413085,8|4
160,96,91262,2,0,B|280:96,1,82.4999975413085
208,176,91590,2,0,B|304:176,1,82.4999975413085,8|0
368,176,91917,6,0,B|472:176,1,82.4999975413085,4|0
416,256,92244,2,0,B|296:256,1,82.4999975413085,8|4
248,256,92572,1,0
208,328,92736,2,0,B|160:328,1,41.2499987706542
288,328,92981,2,0,B|344:328,1,41.2499987706542
400,360,93227,1,0
408,80,94209,5,2
408,80,94537,1,6
304,144,95028,1,0
408,216,95519,2,0,B|449:259|432:320,2,110,2|8|0
232,160,96828,5,0
232,160,97156,2,0,B|224:112|176:96|128:112|120:168|120:168|120:224,1,220,2|0
120,296,98138,1,8
120,296,98465,1,0
440,264,99447,5,0
440,264,99774,1,4
352,352,100265,1,0
264,264,100756,1,0
264,264,101084,2,0,B|221:223|160:240,1,110,8|0
297,156,102066,5,0
297,73,102393,2,0,B|185:57|96:152,1,220,8|2
100,148,103375,2,0,B|120:184|120:224|99:265,1,110,8|0
400,128,104684,6,0,B|360:128|360:128|327:156|327:156|280:156,1,110,0|4
256,80,105175,2,0,B|256:16,1,55,0|8
168,80,105502,2,0,B|104:80,1,55
168,168,105830,2,0,B|168:232,3,55,0|8|0|4
112,128,107303,6,0,B|152:128|152:128|185:156|185:156|232:156,1,110,0|4
256,80,107794,2,0,B|256:16,1,55,0|8
344,80,108121,2,0,B|408:80,1,55
344,168,108448,2,0,B|344:232,3,55,0|8|0|4
104,168,109921,5,8
104,168,110249,2,0,B|128:184|200:152|232:176,1,110,0|8
253,96,110740,1,0
336,82,110903,1,0
394,146,111067,1,0
354,221,111231,1,8
272,232,111394,1,0
272,232,111558,1,0
272,232,111885,1,4
456,192,112540,5,8
456,192,112868,2,0,B|480:224|469:289|400:296|373:266,2,165,0|0|8
312,192,114177,2,0,B|240:224|152:160|168:72,1,220
256,80,114995,6,0,B|256:24,4,55,0|8|0|0|0
328,104,115814,5,8
400,136,115977,1,0
400,216,116141,1,0
328,248,116305,1,0
328,176,116468,1,8
256,216,116632,1,0
256,136,116796,5,4
256,136,117123,1,4
256,136,117450,1,4
256,136,117778,1,4
256,280,118105,5,4
176,280,118269,2,0,B|176:328,2,41.2499987706542,0|0|8
104,232,118596,1,0
32,184,118760,2,0,B|32:76,3,82.4999975413085,0|0|8|0
112,64,119415,2,0,B|112:172,1,82.4999975413085,4|0
200,144,119742,6,0,B|248:144|296:176,1,82.4999975413085,8|0
352,144,120069,1,0
304,80,120233,2,0,B|256:80|208:48,1,82.4999975413085,0|8
225,58,120560,1,0
200,144,120724,2,0,B|200:232,1,82.4999975413085,4|0
136,272,121051,2,0,B|208:336|304:304,1,164.999995082617,8|0
355,180,121706,2,0,B|283:116|187:148,1,164.999995082617,8|0
201,143,122197,1,0
201,143,122524,1,0
104,320,123015,5,0
104,320,123179,1,0
104,320,123343,1,4
192,320,123506,2,0,B|192:272,2,41.2499987706542,0|0|8
280,320,123834,1,0
344,256,123997,2,0,B|240:216,3,82.4999975413085,0|0|8|0
192,184,124652,2,0,B|288:144,1,82.4999975413085,4|0
344,120,124979,6,0,B|384:136|384:136|416:160,1,82.4999975413085,8|0
496,160,125307,1,0
472,80,125471,2,0,B|432:64|432:64|400:40,1,82.4999975413085,0|8
320,40,125798,1,0
256,96,125962,5,4
40,192,126289,1,8
256,296,126616,1,0
472,192,126944,1,8
384,192,127107,1,0
296,192,127271,6,0,B|248:192|200:144,1,82.4999975413085
104,240,127598,2,0,B|152:240|208:280,1,82.4999975413085,8|0
256,296,127926,6,0,B|360:296,3,82.4999975413085,0|0|8|0
424,296,128580,5,4
424,128,128908,2,0,B|380:121|380:121|336:128,1,82.4999975413085,8|0
256,128,129235,2,0,B|232:224|128:216,1,164.999995082617,0|8
136,217,129726,1,0
48,216,129890,1,4
256,272,130217,5,8
256,272,130381,1,0
256,272,130544,2,0,B|280:176|384:184,1,164.999995082617,0|8
464,184,131035,1,0
376,184,131199,2,0,B|280:168|256:80,1,164.999995082617,0|8
80,80,131854,2,0,B|80:272,1,164.999995082617,0|8
256,192,132509,1,4
256,192,132672,1,0
256,192,133000,1,0
256,24,133491,5,0
256,24,133654,1,0
256,24,133818,1,0
384,104,134145,6,0,B|384:192,1,82.4999975413085,8|0
128,104,134636,2,0,B|128:192,1,82.4999975413085,0|8
256,320,135127,5,0
472,248,135455,1,8
472,328,135618,1,0
472,172,135946,1,0
472,96,136109,1,8
136,184,136437,5,0
195,251,136600,1,0
256,184,136764,1,8
320,248,136928,1,0
76,253,137255,1,0
136,320,137419,1,8
256,320,137746,6,0,B|352:320,2,82.4999975413085,0|0|8
256,232,138237,1,0
256,56,138565,1,0
256,144,138728,1,8
256,192,138892,12,4,140365
