osu file format v7

[General]
AudioFilename: Poison.mp3
AudioLeadIn: 1996
PreviewTime: 51568
Countdown: 0
SampleSet: Normal
StackLeniency: 0.3
Mode: 0
LetterboxInBreaks: 0
EpilepsyWarning: 1

[Editor]
Bookmarks: 39313,82295,87623
DistanceSpacing: 0.800000011920929
BeatDivisor: 4
GridSize: 8

[Metadata]
Title:Poison (Nightcore Remix)
Artist:Groove Coverage
Creator:Djnn
Version:Normal
Source:
Tags:Alice Cooper Dance Techo Chipmunk Voice adron zhero sadkangaroo

[Difficulty]
HPDrainRate:2
CircleSize:4
OverallDifficulty:4
SliderMultiplier:1.4
SliderTickRate:1

[Events]
//Background and Video events
0,0,"bg.png"
//Break Periods
//Storyboard Layer 0 (Background)
//Storyboard Layer 1 (Fail)
//Storyboard Layer 2 (Pass)
//Storyboard Layer 3 (Foreground)
//Storyboard Sound Samples
//Background Colour Transformations
3,100,0,0,0

[TimingPoints]
1660,355.218755550293,4,2,1,40,1,0
10895,-200,4,2,1,40,0,0
12494,-100,4,2,1,40,0,0
14625,-100,4,1,1,60,0,1
37181,-100,4,2,1,40,0,0
47838,-200,4,2,1,40,0,0
49259,-100,4,2,1,40,0,0
51568,-100,4,1,1,40,0,1
74124,-200,4,2,1,40,0,0
87622,-100,4,2,1,40,0,0
94105,-100,4,1,1,40,0,0
119770,-100,4,1,1,40,0,1
143392,-100,4,1,1,20,0,1
143925,-100,4,1,1,0,0,1
144280,-100,4,1,1,0,0,0

[Colours]
Combo1 : 255,128,192
Combo2 : 0,255,128
Combo3 : 0,128,255

[HitObjects]
256,192,1660,5,0
144,192,2015,2,0,B|248:80,1,140
368,192,2903,1,2
368,192,3080,1,2
256,192,3436,5,0
256,304,3791,2,0,B|424:304,2,140,0|0|2
256,192,4856,5,0
256,80,5212,2,0,B|96:80,2,140,0|0|2
256,192,6277,1,0
256,192,6633,1,0
256,192,7698,5,0
144,192,8053,2,0,B|144:352,1,140,2|0
200,232,8764,1,0
256,136,9119,5,0
368,136,9474,2,0,B|368:304,1,140,2|0
312,184,10185,1,0
256,280,10540,5,0
256,280,10895,2,0,B|256:128,1,140,2|0
256,140,11961,1,0
256,192,12316,12,0,14092
96,192,14625,5,0
96,192,14803,1,8
208,192,15158,2,0,B|360:192,1,140,0|8
256,128,15868,1,0
152,80,16223,1,8
48,128,16579,1,0
416,192,17467,5,0
416,192,17644,1,8
304,192,18000,2,0,B|152:192,1,140,0|8
256,256,18710,1,0
360,304,19065,1,8
464,256,19420,1,0
328,80,20131,5,0
288,40,20308,1,0
248,80,20486,2,0,B|208:104|216:152,2,70,8|0|0
288,120,21019,1,0
288,120,21197,1,8
288,232,21552,1,0
288,344,21907,1,8
288,232,22262,1,0
264,304,22973,5,0
224,344,23150,1,0
184,304,23328,2,0,B|144:280|152:232,2,70,8|0|0
224,264,23861,1,0
224,264,24038,1,8
224,152,24394,1,0
224,40,24749,1,8
224,152,25104,1,0
328,192,25459,5,8
440,192,25814,1,0
384,96,26170,2,8,B|384:384,2,280
184,192,28301,5,8
184,192,28656,1,0
72,192,29011,1,8
72,192,29367,2,0,B|72:272,1,70,0|0
184,280,29899,1,0
296,280,30255,2,0,B|296:104,1,140
128,128,31143,5,8
240,128,31498,1,0
184,32,31853,2,8,B|184:336,2,280
448,328,34340,5,0
448,328,34695,1,8
344,296,35050,1,0
344,296,35228,1,0
240,328,35583,1,0
128,304,35938,1,0
256,192,36116,12,0,37181
256,192,38602,5,0
368,184,38957,2,0,B|264:72,1,140
144,184,39846,1,2
144,184,40023,1,2
256,192,40378,5,0
256,304,40734,2,0,B|88:304,2,140,0|0|2
256,192,41799,5,0
256,80,42154,2,0,B|416:80,2,140,0|0|2
256,192,43220,1,0
256,192,43575,1,0
256,192,44641,5,0
368,192,44996,2,0,B|368:352,1,140,2|0
312,232,45707,1,0
256,136,46062,5,0
144,136,46417,2,0,B|144:304,1,140,2|0
200,184,47128,1,0
256,280,47483,5,0
256,280,47838,2,0,B|256:128,1,140,2|0
256,140,48904,1,0
256,192,49259,12,0,51035
416,192,51568,5,0
416,192,51745,1,8
304,192,52101,2,0,B|152:192,1,140,0|8
256,128,52811,1,0
360,80,53166,1,8
464,128,53521,1,0
96,192,54409,5,0
96,192,54587,1,8
208,192,54942,2,0,B|360:192,1,140,0|8
256,256,55653,1,0
152,304,56008,1,8
48,256,56363,1,0
224,40,57251,5,0
264,80,57429,2,0,B|304:104|296:152,2,70,8|0|0
224,120,57962,1,0
224,120,58139,1,8
224,232,58495,1,0
224,344,58850,1,8
224,232,59205,1,0
288,344,60093,5,0
328,304,60271,2,0,B|368:280|360:232,2,70,8|0|0
288,264,60803,1,0
288,264,60981,1,8
288,152,61336,1,0
288,40,61691,1,8
288,152,62047,1,0
184,192,62402,5,8
72,192,62757,1,0
128,96,63112,2,8,B|128:384,2,280
328,192,65244,5,8
328,192,65599,1,0
440,192,65954,1,8
440,192,66309,2,0,B|440:272,1,70
328,280,66842,1,0
216,280,67197,2,0,B|216:104,1,140
384,128,68085,5,8
272,128,68441,1,0
328,32,68796,2,8,B|328:336,2,280
64,328,71282,5,0
64,328,71638,1,8
176,312,71993,1,0
176,312,72170,1,0
288,336,72526,1,0
400,312,72881,1,0
256,192,73058,12,0,74124
176,192,75900,5,8
216,192,76078,1,0
256,192,76255,1,0
328,192,76611,1,8
400,192,76966,2,0,B|400:336,1,140
336,280,78032,2,8,B|184:280,2,140
336,280,79808,1,0
120,104,81584,6,0,B|152:144,2,35,8|0|0
184,104,82294,1,8
248,104,82649,2,0,B|248:256,1,140
312,184,83715,1,8
312,184,84070,2,8,B|456:184,4,140
256,280,87267,5,0
144,280,87622,2,8,B|256:120|368:280,1,280
256,104,88688,5,0
144,104,89043,2,8,B|256:264|368:104,1,280
256,104,90109,1,0
256,192,90464,12,0,91530
392,192,91885,6,8,B|88:192,3,280
112,248,94194,5,0
168,248,94372,2,0,B|328:248,1,140,8|0
416,256,95082,2,0,B|416:96,2,140,8|0|8
304,256,96148,1,0
48,232,97036,5,0
48,232,97213,2,0,B|192:232,1,140
188,232,97746,1,0
188,232,97924,1,8
120,144,98279,1,0
120,144,98634,1,8
120,144,98989,1,0
120,144,99700,1,0
120,144,99877,5,0
120,144,100055,2,0,B|272:144,1,140,8|0
200,240,100766,2,0,B|368:240,1,140,8|0
440,192,101476,1,8
440,192,101831,1,0
160,192,102719,5,0
160,192,102897,1,8
272,192,103252,1,0
384,192,103607,1,8
272,192,103963,2,0,B|272:368,2,140,0|8|0
272,192,104851,1,0
272,192,105028,1,8
184,264,105383,5,0
72,264,105739,1,8
128,360,106094,2,8,B|128:64,2,280
256,304,107870,5,0
256,192,108225,1,8
256,80,108580,1,0
256,192,108936,2,0,B|432:192,2,140,8|0|8
256,192,110001,1,0
472,248,110712,5,0
360,248,111067,1,8
416,344,111422,2,8,B|416:48,2,280
256,48,113909,5,0
200,144,114264,1,8
256,240,114619,1,0
256,240,114797,1,0
320,144,115152,1,0
256,48,115507,1,0
200,144,115862,6,0,B|200:360,1,210,0|8
256,256,116750,1,0
256,192,117106,12,8,119237
256,320,119770,5,0
256,320,119947,2,0,B|96:320,1,140,8|0
184,232,120658,2,0,B|184:72,2,140,8|0|8
184,232,121723,1,0
464,232,122611,5,0
464,232,122789,2,0,B|320:232,1,140,8|0
324,232,123322,1,0
324,232,123500,1,8
392,144,123855,1,0
392,144,124210,1,8
392,144,124565,1,0
392,144,125276,1,0
392,144,125453,5,0
392,144,125631,2,0,B|240:144,1,140,8|0
312,240,126341,2,0,B|144:240,1,140,8|0
72,192,127052,1,8
72,192,127407,1,0
352,192,128295,5,0
352,192,128473,1,8
240,192,128828,1,0
128,192,129183,1,8
240,192,129538,2,0,B|240:368,2,140,0|8|0
240,192,130426,1,0
240,192,130604,1,8
328,264,130959,5,0
440,264,131314,1,8
384,360,131670,2,8,B|384:64,2,280
256,304,133446,5,0
256,192,133801,1,8
256,80,134156,1,0
256,192,134511,2,0,B|80:192,2,140,8|0|8
256,192,135577,1,0
40,248,136287,5,0
152,248,136643,1,8
96,344,136998,2,8,B|96:48,2,280
256,48,139484,5,0
312,144,139840,1,8
256,240,140195,1,0
256,240,140372,1,0
192,144,140728,1,0
256,48,141083,1,0
312,144,141438,6,0,B|312:360,1,210,0|8
256,256,142326,1,0
256,192,142681,12,0,144280
