osu file format v7

[General]
AudioFilename: Poison.mp3
AudioLeadIn: 1996
PreviewTime: 51568
Countdown: 0
SampleSet: Normal
StackLeniency: 0.3
Mode: 0
LetterboxInBreaks: 0
EpilepsyWarning: 1

[Editor]
Bookmarks: 39313,82295,87623
DistanceSpacing: 0.400000005960464
BeatDivisor: 2
GridSize: 8

[Metadata]
Title:Poison (Nightcore Remix)
Artist:Groove Coverage
Creator:Djnn
Version:Easy
Source:
Tags:Alice Cooper Dance Techo Chipmunk Voice adron zhero sadkangaroo

[Difficulty]
HPDrainRate:3
CircleSize:3
OverallDifficulty:2
SliderMultiplier:1
SliderTickRate:1

[Events]
//Background and Video events
0,0,"bg.png"
//Break Periods
2,74324,85352
//Storyboard Layer 0 (Background)
//Storyboard Layer 1 (Fail)
//Storyboard Layer 2 (Pass)
//Storyboard Layer 3 (Foreground)
//Storyboard Sound Samples
//Background Colour Transformations
3,100,0,0,0

[TimingPoints]
1660,355.218755550293,4,2,1,40,1,0
14625,-100,4,1,1,60,0,1
37181,-100,4,2,1,40,0,0
51390,-100,4,1,1,40,0,1
74124,-100,4,1,1,40,0,0
86912,-200,4,2,1,40,0,0
94194,-100,4,1,1,40,0,0
119592,-100,4,1,1,40,0,1
143392,-100,4,1,1,20,0,1
143925,-100,4,1,1,0,0,1
144280,-100,4,1,1,0,0,0

[Colours]
Combo1 : 255,128,192
Combo2 : 0,255,128
Combo3 : 0,128,255

[HitObjects]
256,192,1660,1,2
336,192,2370,1,0
416,192,3080,1,0
416,232,3436,1,0
416,272,3791,1,0
336,272,4501,1,0
296,272,4856,1,0
256,272,5212,2,0,B|48:272,2,200
256,152,7698,5,0
256,112,8053,2,0,B|480:112,1,200,2|0
456,152,9119,1,0
456,192,9474,2,0,B|240:192,1,200,2|0
256,232,10540,5,0
256,232,10895,2,0,B|48:232,1,200
256,192,11961,12,0,14447
176,192,15158,5,8
256,192,15868,1,8
296,200,16223,1,0
336,192,16579,1,8
256,104,17644,5,0
216,104,18000,1,0
176,104,18355,2,0,B|112:104,2,50,0|0|8
176,144,19065,1,0
176,184,19420,1,8
176,264,20131,5,8
216,264,20486,1,0
256,264,20841,1,8
296,264,21197,1,0
336,264,21552,5,8
376,264,21907,1,0
376,264,22262,1,8
376,144,23328,5,0
344,120,23683,1,8
312,144,24038,1,0
272,128,24394,1,0
232,144,24749,2,8,B|24:144,2,200
256,192,26347,12,0,28301
176,192,29011,5,8
256,192,29722,1,8
336,192,30432,1,8
256,192,31143,5,8
256,192,31498,2,8,B|32:192,3,200
40,112,34340,5,8
120,112,35050,1,8
200,112,35761,1,8
256,192,36116,12,0,37892
256,192,38957,5,2
256,192,39313,2,0,B|40:192,1,200
56,232,40378,1,2
96,232,40734,1,0
216,232,41799,5,0
216,232,42154,2,0,B|432:232,1,200,2|0
416,272,43220,1,0
376,272,43575,1,2
256,272,44641,5,0
216,272,44996,2,0,B|216:56,1,200,2|0
176,72,46062,1,0
136,72,46417,2,0,B|136:296,1,200,2|0
96,272,47483,1,0
56,272,47838,2,0,B|56:64,1,200,2|0
56,72,48904,1,0
256,192,49259,12,0,50680
264,192,51390,5,0
184,192,52101,2,8,B|184:72,2,100
104,192,53521,1,8
104,272,54232,5,8
184,272,54942,1,8
224,272,55298,1,0
264,272,55653,1,8
304,272,56008,1,0
344,272,56363,2,0,B|344:152,3,100
264,176,58139,1,8
184,176,58850,1,8
104,176,59560,1,8
104,96,60271,5,8
144,96,60626,1,0
184,96,60981,1,8
224,96,61336,1,0
264,96,61691,2,8,B|472:96,2,200
256,192,63290,12,8,65244
176,192,65954,5,8
256,192,66665,1,8
336,192,67375,1,8
416,192,68085,1,8
416,192,68441,2,8,B|448:336|264:320,2,200
336,192,70572,1,8
336,192,71282,5,8
336,112,71993,1,8
256,112,72703,1,8
176,112,73414,1,8
176,112,74124,1,8
256,192,86912,5,0
256,192,87267,2,0,B|256:40,1,150,2|0
216,40,88688,1,0
176,40,89043,2,0,B|176:176,1,100,2|0
176,184,90109,1,2
256,192,90464,12,2,93661
336,192,94372,5,8
256,192,95082,1,8
216,184,95437,1,0
176,192,95793,1,8
256,280,96858,5,8
336,280,97569,2,0,B|400:280,2,50,8|0|8
336,240,98279,1,0
336,200,98634,1,8
336,120,99345,1,8
256,120,100055,5,8
216,120,100411,1,0
176,120,100766,1,8
136,120,101121,1,0
136,120,101476,1,8
136,240,102542,5,0
168,264,102897,1,8
200,240,103252,1,0
280,240,103963,2,8,B|488:240,2,200
256,192,105561,12,8,107160
336,192,108225,5,8
256,192,108936,1,8
176,192,109646,1,8
256,192,110357,5,8
256,192,110712,2,8,B|480:192,3,200
472,272,113554,5,8
392,272,114264,1,8
312,272,114975,1,8
232,272,115685,1,8
112,272,116750,5,8
112,272,117106,2,2,C|440:272,2,300
112,232,119592,5,4
112,152,120303,2,0,B|112:32,2,100,8|0|8
152,152,121368,1,0
192,152,121723,1,8
272,152,122434,5,0
352,152,123144,1,8
352,192,123500,1,0
352,232,123855,1,8
312,232,124210,1,0
272,232,124565,6,0,B|272:352,3,100,8|0|8|0
192,336,126341,1,8
192,296,126697,1,0
192,256,127052,1,8
192,216,127407,1,0
192,176,127762,1,8
272,176,128473,5,8
312,176,128828,1,0
352,176,129183,1,8
352,136,129538,1,0
352,96,129893,2,8,B|144:96,2,200,8|8|8
256,192,131492,12,0,133446
296,192,134156,5,8
216,192,134867,1,8
136,192,135577,1,8
56,192,136287,1,8
56,192,136643,1,0
56,192,136998,2,8,B|24:336|208:320,2,200
56,192,138774,1,8
136,192,139484,5,8
136,112,140195,1,8
216,112,140905,1,8
296,112,141616,1,8
296,112,142326,1,8
256,192,142681,12,0,144280
