osu file format v12

[General]
AudioFilename: Poison(Nightcore Remix).mp3
AudioLeadIn: 0
PreviewTime: 15768
Countdown: 0
SampleSet: Normal
StackLeniency: 0.7
Mode: 0
LetterboxInBreaks: 0

[Editor]
DistanceSpacing: 1.1
BeatDivisor: 4
GridSize: 8

[Metadata]
Title:Poison (Nightcore Mix)
TitleUnicode:Poison (Nightcore Mix)
Artist:Groove Coverage
ArtistUnicode:Groove Coverage
Creator:Gero
Version:Easy
Source:
Tags:Alice Cooper Remix DJ Novus Melanie Munch
BeatmapID:174515
BeatmapSetID:57984

[Difficulty]
HPDrainRate:2
CircleSize:3
OverallDifficulty:3
ApproachRate:3
SliderMultiplier:0.80000000596046
SliderTickRate:2

[Events]
//Background and Video events
0,0,"BG.jpg",0,0
//Break Periods
2,76918,86866
//Storyboard Layer 0 (Background)
//Storyboard Layer 1 (Fail)
//Storyboard Layer 2 (Pass)
//Storyboard Layer 3 (Foreground)
//Storyboard Sound Samples
//Background Colour Transformations
3,100,163,162,255
3,100,163,162,255

[TimingPoints]
2971,355.566090847136,4,1,0,50,1,0
3326,-100,4,2,0,50,0,0
4393,-100,4,1,0,50,0,0
4748,-100,4,2,0,50,0,0
5815,-100,4,1,0,50,0,0
6171,-100,4,2,0,50,0,0
7237,-100,4,1,0,50,0,0
7593,-100,4,2,0,50,0,0
7948,-100,4,2,0,50,0,0
8660,-100,4,1,0,50,0,0
9371,-100,4,1,0,50,0,0
10082,-100,4,2,0,50,0,0
10793,-100,4,1,0,50,0,0
11504,-100,4,2,0,50,0,0
12215,-100,4,1,0,50,0,0
15771,-100,4,2,0,50,0,0
16482,-100,4,2,0,50,0,0
21727,-100,4,2,1,50,0,0
21904,-100,4,2,0,50,0,0
25993,-100,4,2,1,50,0,0
26171,-100,4,2,0,50,0,0
26705,-100,4,2,1,50,0,0
26882,-100,4,2,0,50,0,0
27149,-100,4,1,0,50,0,1
29994,-100,4,1,0,50,0,1
30260,-100,4,1,1,50,0,1
30438,-100,4,1,0,50,0,1
31682,-100,4,1,1,50,0,1
31860,-100,4,1,0,50,0,1
33105,-100,4,1,1,50,0,1
33283,-100,4,1,0,50,0,1
33816,-100,4,1,1,50,0,1
33994,-100,4,1,0,50,0,1
34527,-100,4,1,1,50,0,1
34705,-100,4,1,0,50,0,1
35238,-100,4,1,1,50,0,1
35416,-100,4,1,0,50,0,1
36660,-100,4,1,1,50,0,1
36838,-100,4,1,0,50,0,1
37372,-100,4,1,1,50,0,1
37549,-100,4,1,0,50,0,1
38527,-100,4,2,0,50,0,0
39860,-100,4,1,0,50,0,0
40038,-100,4,2,0,50,0,0
41372,-100,4,1,0,50,0,0
41727,-100,4,2,0,50,0,0
42794,-100,4,1,0,50,0,0
43149,-100,4,2,0,50,0,0
44127,-100,4,1,0,50,0,0
44305,-100,4,2,0,50,0,0
45638,-100,4,1,0,50,0,0
46350,-100,4,1,0,50,0,0
47061,-100,4,2,0,50,0,0
47772,-100,4,1,0,50,0,0
48483,-100,4,2,0,50,0,0
49194,-100,4,1,0,50,0,0
49905,-100,4,2,0,50,0,0
60128,-100,4,2,1,50,0,0
60306,-100,4,2,0,50,0,0
60839,-100,4,2,1,50,0,0
61017,-100,4,2,0,50,0,0
62972,-100,4,2,1,50,0,0
63150,-100,4,2,0,50,0,0
64128,-100,4,1,0,50,0,1
64395,-100,4,1,1,50,0,1
64572,-100,4,1,0,50,0,1
65106,-100,4,1,1,50,0,1
65283,-100,4,1,0,50,0,1
65817,-100,4,1,1,50,0,1
65995,-100,4,1,0,50,0,1
66972,-100,4,1,0,50,0,1
68661,-100,4,1,1,50,0,1
68839,-100,4,1,0,50,0,1
70084,-100,4,1,1,50,0,1
70261,-100,4,1,0,50,0,1
71506,-100,4,1,1,50,0,1
71684,-100,4,1,0,50,0,1
72928,-100,4,1,1,50,0,1
73106,-100,4,1,0,50,0,1
74350,-100,4,1,1,50,0,1
74528,-100,4,1,0,50,0,1
75062,-100,4,1,1,50,0,1
75239,-100,4,1,0,50,0,1
75506,-100,4,2,0,50,0,0
88306,-100,4,1,0,50,0,0
90440,-100,4,1,0,50,0,0
95773,-100,4,2,0,50,0,0
103507,-100,4,2,1,50,0,0
103685,-100,4,2,0,50,0,0
106796,-100,4,1,0,50,0,1
109907,-100,4,1,1,50,0,1
110085,-100,4,1,0,50,0,1
111329,-100,4,1,1,50,0,1
111507,-100,4,1,0,50,0,1
112752,-100,4,1,1,50,0,1
112929,-100,4,1,0,50,0,1
113463,-100,4,1,1,50,0,1
113640,-100,4,1,0,50,0,1
115596,-100,4,1,1,50,0,1
115774,-100,4,1,0,50,0,1
116307,-100,4,1,1,50,0,1
116485,-100,4,1,0,50,0,1
117018,-100,4,1,1,50,0,1
117196,-100,4,1,0,50,0,1
117729,-100,4,1,1,50,0,1
117907,-100,4,1,0,50,0,1
121018,-100,4,2,0,50,0,0
122707,-100,4,2,1,50,0,0
122885,-100,4,2,0,50,0,0
124130,-100,4,2,1,50,0,0
124307,-100,4,2,0,50,0,0
124841,-100,4,2,1,50,0,0
125019,-100,4,2,0,50,0,0
126974,-100,4,2,1,50,0,0
127152,-100,4,2,0,50,0,0
127685,-100,4,2,1,50,0,0
127863,-100,4,2,0,50,0,0
131241,-100,4,2,1,50,0,0
131419,-100,4,2,0,50,0,0
132397,-100,4,1,0,50,0,1
132663,-100,4,1,1,50,0,1
132841,-100,4,1,0,50,0,1
133374,-100,4,1,1,50,0,1
133552,-100,4,1,0,50,0,1
134085,-100,4,1,1,50,0,1
134263,-100,4,1,0,50,0,1
136930,-100,4,1,1,50,0,1
137108,-100,4,1,0,50,0,1
138352,-100,4,1,1,50,0,1
138530,-100,4,1,0,50,0,1
139063,-100,4,1,1,50,0,1
139241,-100,4,1,0,50,0,1
141197,-100,4,1,1,50,0,1
141375,-100,4,1,0,50,0,1
142619,-100,4,1,1,50,0,1
142797,-100,4,1,0,50,0,1
143775,-100,4,2,0,5,0,0

[Colours]
Combo1 : 218,217,163
Combo2 : 89,89,172
Combo3 : 255,32,32
Combo4 : 0,128,128
Combo5 : 0,69,138

[HitObjects]
255,192,2971,1,4,1:0:0:0:
343,192,3326,2,0,P|415:113|331:36,1,240.000001788138,0|0,0:0|1:0,0:0:0:0:
255,71,4748,1,2,0:0:0:0:
192,16,5104,2,0,B|151:64|184:123|184:123|168:167,1,160.000001192092,0|0,0:0|1:0,0:0:0:0:
144,248,6171,5,2,0:0:0:0:
72,296,6526,2,0,B|99:338|148:338|148:338|228:338,1,160.000001192092,0|0,0:0|0:0,0:0:0:0:
304,336,7593,1,2,0:0:0:0:
320,248,7948,2,0,B|369:262|383:299|383:299|457:275,1,160.000001192092,0|0,0:0|0:0,0:0:0:0:
486,193,9015,5,2,2:0:0:0:
451,111,9371,2,0,P|382:76|312:115,1,160.000001192092,2|0,0:0|0:0,0:0:0:0:
252,173,10437,1,2,0:0:0:0:
189,235,10793,2,0,P|121:270|52:235,1,160.000001192092,2|0,0:0|0:0,0:0:0:0:
122,177,11860,5,2,0:0:0:0:
190,121,12215,2,0,P|122:86|53:121,1,160.000001192092,2|0,0:0|2:0,0:0:0:0:
256,192,13282,12,4,15771,0:0:0:0:
392,256,16482,6,0,P|432:190|396:122,2,160.000001192092,8|0|8,0:0|0:0|0:0,0:0:0:0:
256,368,18615,1,0,0:0:0:0:
120,256,19327,1,8,0:0:0:0:
180,90,20038,2,0,P|255:116|330:93,1,160.000001192092,0|8,0:0|0:0,0:0:0:0:
412,62,21104,1,0,0:0:0:0:
488,104,21460,6,0,B|466:147|412:155|412:155|376:208,1,160.000001192092
313,270,22527,1,8,0:0:0:0:
352,352,22882,2,0,B|312:368|272:351,2,80.000000596046,0|8|2,0:0|0:0|0:0,0:0:0:0:
313,270,23949,5,8,0:0:0:0:
256,104,24660,1,8,0:0:0:0:
200,272,25371,1,8,0:0:0:0:
144,344,25727,2,0,P|109:278|143:206,2,160.000001192092,4|4|4,0:0|0:0|0:0,0:0:0:0:
200,272,27505,5,8,0:0:0:0:
375,272,28216,1,8,0:0:0:0:
375,96,28927,1,8,0:0:0:0:
199,96,29638,1,8,0:0:0:0:
110,96,29994,6,0,B|44:135|44:135|4:163|14:216,1,160.000001192092,4|0,0:0|0:0,0:0:0:0:
12,295,31060,1,8,0:0:0:0:
100,295,31416,2,0,B|166:256|166:256|206:228|196:175,1,160.000001192092,0|0,0:0|0:0,0:0:0:0:
264,120,32482,1,8,0:0:0:0:
282,207,32838,6,0,P|345:84|209:53,2,320.000002384184,4|0|0,0:0|0:0|0:0,0:0:0:0:
264,120,36038,5,8,0:0:0:0:
177,135,36394,2,0,B|121:135|121:135|73:151|73:151|17:151,2,160.000001192092,0|0|0,0:0|0:0|0:0,0:0:0:0:
353,103,38527,1,4,0:0:0:0:
64,304,39949,6,0,P|131:341|199:298,2,160.000001192092,4|0|0,0:0|0:0|0:0,0:0:0:0:
128,240,41727,1,2,0:0:0:0:
64,184,42083,2,0,P|131:147|199:190,1,160.000001192092
256,248,43149,5,2,0:0:0:0:
296,328,43505,2,0,B|342:307|342:251|342:251|392:201,1,160.000001192092,0|0,0:0|0:0,0:0:0:0:
449,143,44572,1,2,0:0:0:0:
376,92,44927,2,0,B|319:149|319:149|262:92,1,160.000001192092,0|0,0:0|0:0,0:0:0:0:
86,92,46350,5,2,0:0:0:0:
40,264,47061,2,0,B|87:285|87:285|115:326|115:326|177:351,1,160.000001192092,2|2,0:0|0:0,0:0:0:0:
345,348,48483,2,0,B|399:325|399:325|427:284|427:284|474:263,1,160.000001192092,2|2,0:0|0:0,0:0:0:0:
256,192,49905,12,4,52750,0:0:0:0:
340,215,53461,6,0,P|379:150|337:83,1,160.000001192092,8|0,0:0|0:0,0:0:0:0:
256,56,54528,1,0,0:0:0:0:
173,84,54883,2,0,P|134:149|176:216,1,160.000001192092,8|0,0:0|0:0,0:0:0:0:
256,368,56305,5,8,0:0:0:0:
380,235,57017,1,0,0:0:0:0:
320,168,57372,1,0,0:0:0:0:
256,112,57728,2,0,B|188:112|188:112|137:112|99:90,1,160.000001192092,8|0,0:0|0:0,0:0:0:0:
16,120,58794,5,8,0:0:0:0:
80,184,59150,1,0,0:0:0:0:
166,200,59506,1,8,0:0:0:0:
256,200,59861,2,0,B|324:200|324:200|375:200|413:222,2,160.000001192092,0|2|0,0:0|0:0|0:0,0:0:0:0:
168,200,61639,5,8,0:0:0:0:
88,40,62350,1,8,0:0:0:0:
176,64,62706,2,0,B|256:77|338:64,1,160.000001192092,4|4,0:0|0:0,0:0:0:0:
424,48,63772,1,8,0:0:0:0:
431,136,64128,6,0,B|431:197|379:243|306:250|256:192|256:192|211:251|136:242|82:205|81:136,1,480.000003576276,4|0,0:0|0:0,0:0:0:0:
136,72,66617,5,8,0:0:0:0:
211,116,66972,1,4,0:0:0:0:
298,116,67328,1,8,0:0:0:0:
376,72,67684,2,0,B|429:142,1,80.000000596046,0|8,0:0|0:0,0:0:0:0:
472,208,68395,6,0,P|447:281|371:297,1,160.000001192092
384,208,69461,1,8,0:0:0:0:
336,136,69817,2,0,P|242:73|149:138,2,240.000001788138,4|8|0,0:0|0:0|0:0,0:0:0:0:
285,208,72306,1,8,0:0:0:0:
352,264,72661,6,2,P|285:301|218:264,1,160.000001192092,0|0,0:0|0:0,0:0:0:0:
285,208,73728,1,8,0:0:0:0:
216,152,74084,2,2,P|283:115|350:152,2,160.000001192092,0|0|4,0:0|0:0|0:0,0:0:0:0:
176,288,88306,6,0,B|255:268|255:268|337:288,1,160.000001192092,4|2,0:0|0:0,0:0:0:0:
332,110,89729,2,0,B|255:128|255:128|176:108,1,160.000001192092,0|2,0:0|0:0,0:0:0:0:
200,280,91151,6,0,P|258:234|314:281,2,160.000001192092,0|2|0,0:0|0:0|0:0,0:0:0:0:
216,368,92929,1,2,0:0:0:0:
136,336,93284,2,0,P|-17:199|168:80,1,480.000003576276,0|4,0:0|0:0,0:0:0:0:
240,88,95773,5,0,0:0:0:0:
320,120,96129,2,0,B|383:120|457:187|457:187|388:264|318:264,1,320.000002384184,8|8,0:0|0:0,0:0:0:0:
160,192,98262,5,0,0:0:0:0:
256,48,98973,1,8,0:0:0:0:
349,197,99684,1,0,0:0:0:0:
317,277,100040,1,0,0:0:0:0:
269,349,100396,2,0,L|108:349,1,160.000001192092,8|0,0:0|0:0,0:0:0:0:
63,273,101462,5,8,0:0:0:0:
63,97,102173,1,8,0:0:0:0:
238,97,102885,1,8,0:0:0:0:
319,63,103240,2,0,B|340:108|313:146|313:146|369:202,1,160.000001192092,2|0,0:0|0:0,0:0:0:0:
408,272,104307,6,0,L|349:331,1,80.000000596046,8|0,0:0|0:0,0:0:0:0:
301,256,105018,1,8,0:0:0:0:
213,256,105374,1,4,0:0:0:0:
160,328,105729,2,0,L|103:272,1,80.000000596046,8|4,0:0|0:0,0:0:0:0:
40,208,106440,1,8,0:0:0:0:
256,192,106796,12,0,108929,0:0:0:0:
144,248,109640,6,0,P|186:181|186:102,1,160.000001192092,4|0,0:0|0:0,0:0:0:0:
256,48,110707,1,8,0:0:0:0:
326,102,111063,2,0,P|326:181|368:248,1,160.000001192092,0|0,0:0|0:0,0:0:0:0:
416,320,112129,1,8,0:0:0:0:
327,328,112485,6,0,P|250:312|170:330,2,160.000001192092,4|0|0,0:0|0:0|0:0,0:0:0:0:
416,320,114263,1,8,0:0:0:0:
368,248,114618,1,0,0:0:0:0:
293,201,114974,1,8,0:0:0:0:
206,183,115329,6,0,P|265:58|414:102,2,320.000002384184,4|0|4,0:0|0:0|0:0,0:0:0:0:
256,192,118885,12,4,121018,0:0:0:0:
416,208,121730,5,0,0:0:0:0:
353,145,122085,1,8,0:0:0:0:
290,82,122441,2,0,B|229:143|229:143|153:143,1,160.000001192092,0|2,0:0|0:0,0:0:0:0:
96,208,123507,5,8,0:0:0:0:
158,270,123863,2,0,B|231:270|231:270|292:331,2,160.000001192092
95,207,125641,1,8,0:0:0:0:
256,176,126352,1,8,0:0:0:0:
336,137,126707,6,0,B|315:87|261:87|261:87|216:42,2,160.000001192092,0|0|0,0:0|0:0|0:0,0:0:0:0:
256,176,128485,2,0,P|314:229|389:212,1,160.000001192092,8|8,0:0|0:0,0:0:0:0:
256,328,129908,5,8,0:0:0:0:
144,192,130619,1,8,0:0:0:0:
176,112,130974,2,0,L|348:112,1,160.000001192092,4|4,0:0|0:0,0:0:0:0:
376,192,132041,1,8,0:0:0:0:
384,280,132397,6,0,B|406:328|358:368|290:358|278:319|314:278|274:294|258:382|258:382|242:294|202:278|225:319|210:358|146:374|98:326|126:280,1,480.000003576276,4|0,0:0|0:0,0:0:0:0:
192,224,134886,1,8,0:0:0:0:
256,168,135241,6,0,L|314:223,1,80.000000596046,4|8,0:0|0:0,0:0:0:0:
384,280,135952,2,0,L|445:228,1,80.000000596046,0|8,0:0|0:0,0:0:0:0:
445,140,136663,2,0,B|371:98|371:98|339:77|315:43,1,160.000001192092
255,108,137730,1,8,0:0:0:0:
192,48,138086,6,0,B|170:78|138:99|138:99|64:141,2,160.000001192092,4|0|0,0:0|0:0|0:0,0:0:0:0:
255,108,139863,2,0,L|255:275,1,160.000001192092,8|8,0:0|0:0,0:0:0:0:
192,330,140930,6,2,P|256:370|322:332,1,160.000001192092,0|0,0:0|0:0,0:0:0:0:
361,251,141997,1,8,0:0:0:0:
323,171,142352,2,2,P|257:133|193:173,1,160.000001192092,0|0,0:0|0:0,0:0:0:0:
148,249,143419,1,8,0:0:0:0:
256,192,143775,12,4,145197,0:0:0:0:
