osu file format v9

[General]
AudioFilename: Groove Coverage - On The Radio (Nightcore mix).mp3
AudioLeadIn: 0
PreviewTime: 92491
Countdown: 0
SampleSet: Normal
StackLeniency: 0.4
Mode: 0
LetterboxInBreaks: 0

[Editor]
Bookmarks: 13045,24601,28934,39768
DistanceSpacing: 0.8
BeatDivisor: 2
GridSize: 8

[Metadata]
Title:On The Radio (Nightcore Mix)
Artist:Groove Coverage
Creator:ztrot
Version:Insane
Source:
Tags:Tony osuplayer111 Tonoicutzu andrea

[Difficulty]
HPDrainRate:8
CircleSize:4
OverallDifficulty:8
ApproachRate:8
SliderMultiplier:2.26
SliderTickRate:2

[Events]
//Background and Video events
0,0,"DJ.jpg"
//Break Periods
//Storyboard Layer 0 (Background)
//Storyboard Layer 1 (Fail)
//Storyboard Layer 2 (Pass)
//Storyboard Layer 3 (Foreground)
//Storyboard Sound Samples
//Background Colour Transformations
3,100,163,162,255

[TimingPoints]
45,361.11947035811,4,1,1,100,1,0
92672,-100,4,1,2,100,0,0
98269,-100,4,1,1,100,0,0
138173,-100,4,1,1,5,0,0

[Colours]
Combo1 : 255,181,145
Combo2 : 216,176,255
Combo3 : 36,146,255
Combo4 : 193,193,193

[HitObjects]
304,280,13045,2,0,B|408:360|512:280,2,226
312,192,13948,1,0
256,112,14128,1,0
200,192,14309,1,0
208,280,14489,2,0,B|104:360|0:280,2,226
104,128,15573,5,0
56,48,15753,1,0
160,48,15934,1,0
40,192,16295,1,0
152,336,16656,1,0
256,272,16837,1,0
360,336,17017,1,0
480,304,17198,1,0
472,192,17378,2,0,B|344:192|312:56,2,226
256,360,18642,5,0
192,296,18823,2,0,B|136:328|72:296|48:232|112:176,2,226
208,208,19726,1,0
256,128,19906,1,0
304,208,20087,1,0
320,296,20267,2,0,B|376:328|440:296|464:232|400:176,2,226
208,48,21531,5,0
304,48,21712,1,0
152,144,22073,2,0,B|40:200|80:336,2,226
256,160,22976,1,0
360,144,23156,2,0,B|472:200|432:336,2,226
40,328,24601,5,4
192,232,24962,1,0
472,328,25323,1,4
320,232,25684,1,0
40,56,26045,1,4
192,152,26406,1,0
472,56,26767,1,4
320,152,27128,1,0
256,352,27490,5,4
176,312,27670,1,0
96,344,27851,2,0,B|72:288|120:232,1,113
208,232,28212,1,4
288,272,28392,1,0
288,184,28573,2,0,B|352:192|376:256,1,113
384,352,28934,5,4
432,352,29024,1,0
480,336,29115,1,0
496,296,29205,1,0
496,248,29295,1,0
480,192,29385,1,0
432,176,29476,1,0
384,176,29566,1,0
352,208,29656,5,4
304,208,29746,1,0
256,192,29837,1,0
240,136,29927,1,0
240,88,30017,1,0
256,48,30107,1,0
304,32,30198,1,0
352,32,30288,1,0
256,192,30379,12,4,31823
352,320,32184,5,4
160,320,32545,1,4
256,216,32906,1,0
200,144,33087,1,4
312,144,33267,2,0,B|368:200|432:208|432:208|480:168|480:136,2,226,4|0|4
256,216,34170,1,0
256,304,34351,5,4
184,256,34531,1,0
328,256,34712,1,4
112,240,35073,1,0
400,240,35434,1,4
256,120,35795,5,4
312,48,35976,1,0
200,48,36156,2,0,B|104:24|104:24|40:48|48:128,2,226,4|4|4
256,120,37059,1,0
208,200,37240,2,0,B|256:256|304:200,1,113,4|0
352,120,37601,6,0,B|472:168|456:304,1,226,4|8
160,120,38323,2,0,B|40:168|56:304,1,226,4|8
344,272,39045,2,0,B|312:352|200:352|168:272,1,226,4|8
208,192,39587,1,0
303,191,39768,6,0,B|332:233|388:225|414:205|427:174|419:118|371:102,1,226,4|8
304,48,40309,1,0
208,48,40490,2,0,B|80:56|48:192,2,226,4|8|4
184,136,41393,1,0
256,224,41573,1,8
328,136,41754,1,0
208,48,41934,5,4
256,144,42115,1,0
304,48,42295,1,8
168,128,42476,1,0
344,128,42657,1,4
200,232,43018,6,0,B|200:296,1,56.5,8|0
312,232,43289,2,0,B|312:288,1,56.5,0|4
256,360,43559,1,2
168,368,43740,2,0,B|120:320|64:336,1,113,8|2
32,248,44101,1,4
120,256,44282,1,2
80,176,44462,2,0,B|40:128|72:72,1,113,8|2
152,120,44823,6,0,B|256:40|360:120,2,226,4|8|4
208,192,45726,1,0
304,192,45907,1,8
208,192,46087,1,2
304,192,46268,2,0,B|424:240|504:128,2,226,4|8|4
320,104,47171,1,0
256,24,47351,1,8
192,104,47532,1,0
208,192,47712,6,0,B|88:240|8:128,2,226,4|8|4
256,120,48615,1,2
320,248,48796,1,8
192,248,48976,1,2
344,160,49157,2,0,B|400:120|456:128|456:128|496:208|488:240,2,226,4|8|4
256,200,50060,1,2
200,304,50240,1,8
312,304,50421,1,2
200,304,50601,2,0,B|72:304|32:168,2,226,4|8|4
256,200,51504,1,2
208,104,51685,5,8
304,104,51865,1,2
256,200,52046,2,0,B|376:248|464:144,2,226,4|8|4
168,208,52949,5,2
256,288,53129,1,8
344,208,53310,1,2
200,344,53490,5,4
336,264,53671,1,2
312,344,53851,1,8
176,264,54032,1,2
256,216,54212,2,0,B|352:128|472:184,1,226,0|8
360,32,54935,5,0
152,32,55296,1,8
64,32,55476,1,0
40,120,55657,1,0
360,32,56018,1,8
448,32,56199,1,0
472,120,56379,5,4
256,344,56740,1,0
40,120,57101,1,4
312,160,57462,1,0
200,160,57643,1,0
256,256,57824,2,0,B|152:184|160:304|32:248,2,226,4|0|4
200,56,58907,5,0
312,56,59088,1,0
256,144,59268,1,4
136,352,59629,1,0
376,352,59990,1,4
200,256,60351,1,0
312,256,60532,1,0
256,144,60713,2,0,B|360:72|352:192|480:136,2,226,4|0|4
48,336,61976,5,0
48,336,62157,1,4
256,168,62518,1,0
464,336,62879,1,4
464,232,63060,1,0
368,200,63240,1,4
256,368,63602,1,4
48,336,63963,1,4
48,232,64143,1,0
144,200,64324,1,4
448,48,64865,5,0
448,48,65046,1,4
256,200,65407,1,0
64,48,65768,1,4
64,136,65949,1,0
128,200,66129,1,0
448,48,66490,5,4
448,136,66671,1,0
384,200,66852,2,0,B|248:232|248:360,1,226,4|0
256,40,67754,5,2
168,32,67935,1,4
200,120,68116,1,2
112,104,68296,2,0,B|112:176|176:208,1,113,8|2
248,192,68657,1,4
216,280,68838,1,2
304,264,69018,2,0,B|352:216|328:160,1,113,8|2
256,104,69379,5,4
344,72,69560,1,2
408,136,69741,2,0,B|464:168|448:240,1,113,8|2
360,208,70102,1,4
384,296,70282,1,2
296,272,70463,2,0,B|256:224|280:160,1,113,8|2
352,120,70824,6,0,B|392:176|464:168|464:168|496:128|496:72,2,226,4|8|4
208,8,71907,1,12
256,88,72088,1,2
160,120,72268,2,0,B|120:176|48:168|48:168|16:128|16:72,2,226,4|8|4
256,272,73352,5,8
208,192,73532,1,2
304,192,73713,1,4
152,288,74074,1,8
360,288,74435,1,4
408,216,74616,1,2
456,144,74796,1,12
56,144,75157,6,0,B|160:72|192:184|256:80,1,226,4|8
328,136,75699,1,2
400,80,75880,2,0,B|480:168|440:296,1,226,0|8
368,344,76421,1,2
280,328,76602,6,0,B|192:256|232:120,2,226,4|8|4
176,352,77505,1,2
104,296,77685,1,8
32,128,78046,1,4
88,56,78227,1,2
144,128,78407,2,0,B|184:240|336:224,2,226,12|0|12
216,72,79310,1,0
320,72,79491,5,4
400,120,79671,1,2
488,88,79852,2,0,B|512:144|464:200,1,113,8|2
384,208,80213,1,4
440,280,80393,1,2
352,288,80574,2,0,B|288:280|264:216,1,113,8|8
312,144,80935,2,0,B|176:120|152:272,2,226,4|8|4
176,24,82019,5,8
88,48,82199,1,2
152,112,82380,2,0,B|56:192|96:328,2,226,4|8|4
208,184,83283,1,2
304,184,83463,1,12
256,104,83643,1,6
360,112,83824,6,0,B|456:192|416:328,2,226,4|0|4
304,184,84727,1,2
256,264,84908,1,8
208,184,85088,1,2
256,104,85269,5,4
160,264,85630,1,8
352,288,85991,1,4
432,240,86171,1,2
432,144,86352,1,12
352,96,86533,1,2
352,192,86713,1,4
160,264,87074,1,8
72,232,87255,1,2
80,144,87435,2,4,B|88:80|152:56|216:48|256:104,1,226,4|8
256,192,87977,1,0
416,184,88158,5,4
392,272,88338,1,2
320,216,88519,1,8
256,280,88699,1,2
192,216,88880,1,4
120,272,89060,1,2
96,184,89241,1,8
256,40,89602,5,4
200,128,89783,1,0
312,128,89963,1,8
256,368,90324,1,4
256,184,90685,1,8
256,192,91047,12,0,92491
256,40,92852,5,8
72,40,93213,1,0
104,120,93394,1,0
56,200,93574,1,8
96,280,93755,1,0
152,352,93936,2,0,B|256:272|360:352,2,226,0|8|0
256,232,95019,1,8
408,136,95380,5,0
368,56,95561,1,0
304,120,95741,1,8
256,40,95922,1,0
208,120,96102,1,0
144,56,96283,1,0
104,136,96463,1,8
176,192,96644,5,0
256,240,96825,1,0
336,192,97005,1,0
176,272,97186,1,8
336,272,97366,1,0
256,320,97547,2,0,B|152:384|40:320,1,226,0|8
40,136,98269,5,0
104,72,98450,1,0
176,120,98630,1,8
256,80,98811,1,0
336,120,98991,1,0
408,72,99172,1,0
472,136,99352,1,8
208,192,99713,6,0,B|144:208|104:160,2,113,0|0|8
256,272,100255,1,0
304,192,100436,2,0,B|368:208|408:160,2,113,0|0|8
160,80,101158,5,0
256,112,101339,1,0
352,80,101519,1,8
256,272,101880,1,0
208,200,102061,1,0
304,200,102241,1,8
400,352,102602,5,0
472,288,102783,1,0
456,184,102964,1,8
256,152,103325,1,0
200,80,103505,1,0
256,8,103686,1,8
312,80,103866,1,0
256,152,104047,5,0
168,160,104227,1,2
104,96,104408,2,0,B|61:145|85:201,1,113,8|2
160,256,104769,1,0
240,216,104949,1,2
240,304,105130,2,0,B|304:296|328:232,1,113,8|2
408,200,105491,5,0
256,24,105853,1,8
104,200,106214,1,0
256,24,106575,1,8
256,112,106755,5,0
176,152,106936,1,0
120,80,107117,1,2
64,152,107297,2,0,B|32:224|96:256,1,113,8|2
176,240,107658,1,0
160,328,107839,1,2
248,296,108019,2,0,B|296:248|272:192,1,113,8|0
368,128,108380,5,0
144,128,108741,1,8
400,128,109103,1,0
112,128,109464,1,8
48,296,109825,5,0
120,240,110005,1,2
168,320,110186,1,8
216,248,110366,1,2
256,328,110547,1,0
296,248,110728,1,2
344,320,110908,1,8
392,240,111089,1,2
464,296,111269,5,0
256,40,111630,1,8
48,296,111992,1,0
40,64,112353,1,8
256,304,112714,1,0
472,64,113075,1,8
472,320,113436,1,0
256,80,113797,1,8
40,320,114158,5,4
256,200,114519,1,0
472,320,114880,1,0
208,104,115603,6,0,B|104:24|0:104,2,226
256,280,116686,1,0
256,192,116867,1,0
304,104,117047,2,0,B|408:24|512:104,2,226
448,336,118311,5,0
360,336,118492,1,0
472,192,118853,1,0
360,48,119214,1,0
152,48,119575,1,0
56,88,119756,1,0
40,192,119936,2,0,B|168:192|200:328,2,226
256,24,121200,5,0
320,88,121381,2,0,B|376:56|440:88|464:152|400:208,2,226
304,176,122283,1,0
256,256,122464,1,0
208,176,122645,1,0
192,88,122825,2,0,B|136:56|72:88|48:152|112:208,2,226
304,336,124089,5,0
208,336,124270,1,0
360,240,124631,2,0,B|472:184|432:48,2,226
152,240,125714,2,0,B|40:184|80:48,2,226
464,56,127159,5,4
256,72,127520,1,8
152,96,127700,1,0
48,56,127881,1,4
200,240,128242,1,8
256,168,128423,1,0
312,240,128603,2,0,B|368:184|432:176|432:176|480:216|480:248,2,226,4|8|4
256,64,129687,5,8
208,144,129867,1,0
304,144,130048,1,4
152,48,130409,1,8
256,64,130589,1,0
360,48,130770,1,4
256,264,131131,5,8
312,336,131312,1,0
200,336,131492,2,0,B|104:360|104:360|40:336|48:256,2,226,4|8|4
256,264,132395,1,0
208,184,132576,2,0,B|256:128|304:184,1,113,8|0
352,264,132937,6,0,B|472:216|456:80,1,226,4|8
160,264,133659,2,0,B|40:216|56:80,1,226,4|8
344,112,134381,2,0,B|312:32|200:32|168:112,1,226,4|8
208,192,134923,1,0
303,193,135104,6,0,B|332:151|388:159|414:179|427:210|419:266|371:282,1,226,4|8
304,336,135645,1,0
208,336,135826,2,0,B|80:328|48:192,2,226,4|8|4
256,160,136909,1,8
208,336,137270,5,4
256,240,137451,1,0
304,336,137631,1,8
168,256,137812,1,0
344,256,137993,1,4
256,192,138173,12,0,139437
