osu file format v9

[General]
AudioFilename: HolyVirgin.mp3
AudioLeadIn: 1500
PreviewTime: 38898
Countdown: 0
SampleSet: Normal
StackLeniency: 0.7
Mode: 0
LetterboxInBreaks: 0
EpilepsyWarning: 1

[Editor]
DistanceSpacing: 0.8
BeatDivisor: 4
GridSize: 4

[Metadata]
Title:Holy Virgin (Nightcore Mix)
Artist:Groove Coverage
Creator:Lizellota
Version:Easy
Source:
Tags:katty pie trance remix

[Difficulty]
HPDrainRate:1
CircleSize:3
OverallDifficulty:2
ApproachRate:3
SliderMultiplier:1
SliderTickRate:1

[Events]
//Background and Video events
0,0,"BG.jpg"
//Break Periods
2,59841,66350
2,117620,127831
//Storyboard Layer 0 (Background)
Sprite,Background,Centre,"SB\1.png",320,240 S,0,38906,,1.1536 M,0,38906,44832,345,209,289,260 F,0,44832,45203,1
Sprite,Background,Centre,"SB\4.png",320,240 S,0,44832,,1.16384 F,0,44832,45203,0,1 M,0,44832,50759,269,205,331,264 F,0,45203,50759,1 F,0,50759,51130,1
Sprite,Background,Centre,"SB\2.png",320,240 S,0,50759,,1.12288 F,0,50759,51130,0,1 M,0,50759,56686,283,271,357,213 F,0,51130,56686,1 F,0,56686,,1 F,0,56686,57056,1
Sprite,Background,Centre,"SB\3.png",320,240 S,0,56686,,1.11264 F,0,56686,57056,0,1 M,0,56686,59649,352,260,308,236 F,0,57056,59649,1 F,0,59649,60019,1,0
Sprite,Background,Centre,"SB\1.png",320,240 S,0,93727,,1.13312 M,0,93727,99654,348,221,278,271 F,0,99654,100024,1
Sprite,Background,Centre,"SB\4.png",320,240 S,0,99654,,1.16384 F,0,99654,100024,0,1 M,0,99654,105581,271,209,343,242 F,0,100024,105581,1 F,0,105581,105600,1 F,0,105600,,1 F,0,105600,105951,1
Sprite,Background,Centre,"SB\2.png",320,240 S,0,105581,,1.17408 F,0,105581,105951,0,1 M,0,105581,111507,284,267,372,199 F,0,105951,111507,1 F,0,111507,,1 F,0,111507,111878,1
Sprite,Background,Centre,"SB\3.png",320,240 S,0,111507,,1.1536 F,0,111507,111878,0,1 M,0,111507,114471,363,265,311,235 F,0,111878,114471,1 F,0,114471,114841,1,0
Sprite,Background,Centre,"SB\1.png",320,240 S,0,142622,,1.13312 M,0,142622,148549,348,221,278,271 F,0,148549,148919,1
Sprite,Background,Centre,"SB\4.png",320,240 S,0,148549,,1.16384 F,0,148549,148919,0,1 M,0,148549,154476,271,209,343,242 F,0,148919,154476,1 F,0,154476,,1 F,0,154476,154846,1
Sprite,Background,Centre,"SB\2.png",320,240 S,0,154476,,1.17408 F,0,154476,154846,0,1 F,0,154476,154846,0,1 M,0,154476,160402,284,267,372,199 F,0,154846,160402,1 F,0,154846,160402,1 F,0,160402,,1 F,0,160402,160773,1
Sprite,Background,Centre,"SB\3.png",320,240 S,0,160402,,1.1536 F,0,160402,160773,0,1 M,0,160402,163366,363,265,311,235 F,0,160773,163366,1 F,0,163366,163736,1,0
Sprite,Background,Centre,"SB\7.png",320,240 F,0,166329,,1 S,0,166329,,1.13312 M,0,166329,172256,355,213,281,269
Sprite,Background,Centre,"SB\100.png",320,240 S,0,178182,,1.14336 M,0,178182,184109,281,268,360,209 M,0,184109,,360,209
Sprite,Background,Centre,"SB\9.png",320,240 S,0,172256,,1.17408 M,0,172256,178182,267,201,368,272
Sprite,Background,Centre,"SB\11.png",320,240 M,0,184109,187072,314,176,321,289 S,0,184109,187072,1.27648,1.2048
//Storyboard Layer 1 (Fail)
//Storyboard Layer 2 (Pass)
//Storyboard Layer 3 (Foreground)
Sprite,Foreground,Centre,"SB\splash.png",320,240 M,0,13717,,320,240 F,0,13717,14458,1,0 S,0,13717,14458,1,1.14336 F,0,14458,19552,0 S,0,14458,19644,1.14336,0.9992262 F,0,19552,19644,0,1 F,0,19644,20385,1,0 S,0,19644,20385,0.9992262,1.142586 F,0,20385,25478,0 S,0,20385,25571,1.142586,0.9990327 F,0,25478,25571,0,1 F,0,25571,26126,1,0 S,0,25571,26126,0.9990327,1.142393 F,0,26126,28442,0 S,0,26126,28534,1.142393,0.9990327 F,0,28442,28534,0,1 F,0,28534,29090,1,0 S,0,28534,29090,0.9990327,1.142393 F,0,29090,31405,0,0.001729826 S,0,29090,31497,1.142393,0.9990325 F,0,31405,31497,0.001729826,1 F,0,31497,32053,1,0.00179857 S,0,31497,32053,0.9990325,1.142393 F,0,32053,34368,0.00179857,0.005250564 S,0,32053,34461,1.142393,0.9990327 F,0,34368,34461,0.005250564,1 F,0,34461,35016,1,0.005389241 S,0,34461,35016,0.9990327,1.142393 F,0,35016,62520,0.005389241 S,0,35016,62612,1.142393,0.9990329 F,0,62520,62612,0.005389241,1 F,0,62612,63724,1,0.005389241 S,0,62612,63724,0.9990329,1.142393 F,0,63724,65483,0.005389241 S,0,63724,65576,1.142393,0.999033 F,0,65483,65576,0.005389241,1 F,0,65576,66687,1,0.005389241 S,0,65576,66687,0.999033,1.142393 F,0,66687,68446,0.005389241 S,0,66687,68539,1.142393,0.9983877 F,0,68446,68539,0.005389241,1 F,0,68539,69280,1,0.005389241 S,0,68539,69280,0.9983877,1.141748 F,0,69280,71410,0.005389241,0.007962622 S,0,69280,71502,1.141748,0.9983879 F,0,71410,71502,0.007962622,1 F,0,71502,72243,1,0.008073772 S,0,71502,72243,0.9983879,1.141748 F,0,72243,74373,0.008073772,0.01320428 S,0,72243,74466,1.141748,0.9983879 F,0,74373,74466,0.01320428,1 F,0,74466,75207,1,0.01342828 S,0,74466,75207,0.9983879,1.141748 F,0,75207,77336,0.01342828,0.01980671 S,0,75207,77429,1.141748,0.9983878 F,0,77336,77429,0.01980671,1 F,0,77429,78170,1,0.02008534 S,0,77429,78170,0.9983878,1.141748 F,0,78170,80300,0.02008534 S,0,78170,80392,1.141748,0.9974205 F,0,80300,80392,0.02008534,1 F,0,80392,80948,1,0.02008534 S,0,80392,80948,0.9974205,1.14078 F,0,80948,83263,0.02008534 S,0,80948,83356,1.14078,0.9974205 F,0,83263,83356,0.02008534,1 F,0,83356,83911,1,0.02008534 S,0,83356,83911,0.9974205,1.14078 F,0,83911,86226,0.02008534,0.02857244 S,0,83911,86319,1.14078,0.9974205 F,0,86226,86319,0.02857244,1 F,0,86319,86875,1,0.02891339 S,0,86319,86875,0.9974205,1.14078 F,0,86875,89190,0.02891339,0.03563258 S,0,86875,89282,1.14078,0.9974205 F,0,89190,89282,0.03563258,1 F,0,89282,89838,1,0.0358996 S,0,89282,89838,0.9974205,1.14078 F,0,89838,117341,0.0358996 S,0,89838,117434,1.14078,0.9966885 F,0,117341,117434,0.0358996,1 F,0,117434,118360,1,0.0358996 S,0,117434,118360,0.9966885,1.099088 F,0,118360,120305,0.0358996,0.0438526 S,0,118360,120397,1.099088,0.9966885 F,0,120305,120397,0.0438526,1 F,0,120397,121323,1,0.04422878 S,0,120397,121323,0.9966885,1.099088 F,0,121323,123268,0.04422878,0.05013911 S,0,121323,123361,1.099088,0.9966884 F,0,123268,123361,0.05013911,1 F,0,123361,124287,1,0.05042171 S,0,123361,124287,0.9966884,1.099088 F,0,124287,126231,0.05042171,0.05629359 S,0,124287,126324,1.099088,0.9966884 F,0,126231,126324,0.05629359,1 F,0,126324,127250,1,0.0565745 S,0,126324,127250,0.9966884,1.099088 F,0,127250,129195,0.0565745,0.05754731 S,0,127250,129287,1.099088,0.9966884 F,0,129195,129287,0.05754731,1 F,0,129287,129843,1,0.05759332 S,0,129287,129843,0.9966884,1.099088 F,0,129843,132158,0.05759332,0.05922285 S,0,129843,132251,1.099088,0.9966884 F,0,132158,132251,0.05922285,1 F,0,132251,132806,1,0.05928831 S,0,132251,132806,0.9966884,1.099088 F,0,132806,135121,0.05928831,0.06417686 S,0,132806,135214,1.099088,0.9966886 F,0,135121,135214,0.06417686,1 F,0,135214,135770,1,0.06437325 S,0,135214,135770,0.9966886,1.099088 F,0,135770,138085,0.06437325,0.06922867 S,0,135770,138177,1.099088,0.9966887 F,0,138085,138177,0.06922867,1 F,0,138177,138733,1,0.06942163 S,0,138177,138733,0.9966887,1.099088
Sprite,Foreground,Centre,"SB\black.png",320,240 M,0,-2576,,320,240 F,0,-1098,383,1 F,0,383,1494,1,0 F,0,1494,35942,0,0.00402683 F,0,35942,37424,0.00402683,1 F,0,37424,38813,1 F,0,38813,,1 F,0,38813,38906,1 F,0,38906,38998,1,0 F,0,38998,90764,0 F,0,90764,92246,0,1 F,0,92246,93727,1 F,0,93727,93820,1,0 F,0,93820,139659,0 F,0,139659,141141,0,1 F,0,141141,142622,1 F,0,142622,142715,1,0 F,0,142715,152994,0 F,0,163366,,0 F,0,163366,164847,0,1 F,0,164847,166329,1 F,0,166329,166422,1,0 F,0,166422,186980,0 F,0,186980,187072,0,1 F,0,187072,191638,1
Sprite,Foreground,Centre,"SB\white.png",320,240 M,0,166329,,320,240 F,0,166329,166699,1,0 F,0,166699,172163,0 F,0,172163,172256,0,1 F,0,172256,172626,1,0 F,0,172626,178090,0 F,0,178090,178182,0,1 F,0,178182,178553,1,0.02162164 F,0,178553,184016,0.02162164,0.03458662 F,0,184016,184109,0.03458662,1 F,0,184109,184479,1,0.03480734 F,0,184479,186984,0.03480734 F,0,186984,187076,0.03480734,1 F,0,187076,187261,1,0
Sprite,Foreground,Centre,"SB\6.png",320,240 F,0,165958,166144,1 F,0,166144,166236,1,0
Sprite,Foreground,Centre,"SB\5.png",320,240 F,0,165588,165773,1 F,0,165773,165866,1,0
Sprite,Foreground,Centre,"SB\8.png",320,240 F,0,165218,165403,1 F,0,165403,165495,1,0
//Storyboard Sound Samples
//Background Colour Transformations
3,100,163,162,255

[TimingPoints]
380,370.37037037037,4,1,1,40,1,0
12972,-100,4,2,1,40,0,0
13713,-100,4,1,1,40,0,0
14083,-100,4,2,1,40,0,0
15009,-100,4,1,1,40,0,0
15379,-100,4,2,1,40,0,0
16676,-100,4,1,1,40,0,0
16861,-100,4,2,1,40,0,0
17972,-100,4,1,1,40,0,0
18342,-100,4,2,1,40,0,0
19639,-100,4,1,1,40,0,0
19824,-100,4,2,1,40,0,0
20935,-100,4,1,1,40,0,0
21305,-100,4,2,1,40,0,0
22602,-100,4,1,1,40,0,0
22787,-100,4,2,1,40,0,0
23898,-100,4,1,1,40,0,0
24824,-100,4,2,1,40,0,0
25565,-100,4,1,1,40,0,0
25750,-100,4,2,1,40,0,0
26861,-100,4,1,1,40,0,0
27231,-100,4,2,1,40,0,0
28528,-100,4,1,1,40,0,0
28713,-100,4,2,1,40,0,0
29824,-100,4,1,1,40,0,0
30194,-100,4,2,1,40,0,0
31491,-100,4,1,1,40,0,0
31676,-100,4,2,1,40,0,0
32787,-100,4,1,1,40,0,0
33157,-100,4,2,1,40,0,0
35750,-100,4,1,1,40,0,0
35935,-100,4,2,1,40,0,0
38898,-100,4,1,1,60,0,0
47787,-100,4,1,1,40,0,0
49639,-100,4,2,1,40,0,0
50750,-100,4,1,1,60,0,0
59639,-100,4,1,1,40,0,0
67787,-100,4,2,1,40,0,0
68528,-100,4,1,1,40,0,0
68719,-100,4,2,1,40,0,0
69824,-100,4,1,1,40,0,0
70194,-100,4,2,1,40,0,0
71491,-100,4,1,1,40,0,0
71676,-100,4,2,1,40,0,0
72787,-100,4,1,1,40,0,0
73157,-100,4,2,1,40,0,0
74454,-100,4,1,1,40,0,0
74639,-100,4,2,1,40,0,0
75750,-100,4,1,1,40,0,0
76305,-100,4,2,1,40,0,0
77417,-100,4,1,1,40,0,0
77602,-100,4,2,1,40,0,0
78713,-100,4,1,1,40,0,0
79083,-100,4,2,1,40,0,0
80379,-100,4,1,1,40,0,0
80565,-100,4,2,1,40,0,0
81676,-100,4,1,1,40,0,0
82046,-100,4,2,1,40,0,0
83342,-100,4,1,1,40,0,0
83528,-100,4,2,1,40,0,0
84639,-100,4,1,1,40,0,0
85194,-100,4,2,1,40,0,0
86305,-100,4,1,1,40,0,0
86491,-100,4,2,1,40,0,0
87602,-100,4,1,1,40,0,0
87972,-100,4,2,1,40,0,0
93713,-100,4,1,1,60,0,0
102602,-100,4,1,1,40,0,0
105565,-100,4,1,1,60,0,0
114454,-100,4,1,1,30,0,0
116305,-100,4,2,1,40,0,0
117417,-100,4,1,1,40,0,0
129454,-100,4,2,1,40,0,0
132231,-100,4,1,1,40,0,0
132417,-100,4,2,1,40,0,0
135194,-100,4,1,1,40,0,0
135379,-100,4,2,1,40,0,0
136491,-100,4,1,1,40,0,0
136861,-100,4,2,1,40,0,0
142602,-100,4,1,1,60,0,0
153342,-100,4,2,1,40,0,0
154454,-100,4,1,1,60,0,0
163342,-100,4,1,1,40,0,0
165194,-100,4,1,1,30,0,0
165565,-100,4,1,1,40,0,0
165935,-100,4,1,1,50,0,0
166305,-100,4,1,1,60,0,1
169639,-100,4,1,1,60,0,1
184454,-100,4,2,1,40,0,0
186305,-133.333333333333,4,2,1,5,0,0

[Colours]
Combo1 : 255,255,28
Combo2 : 255,128,192
Combo3 : 172,0,255

[HitObjects]
144,192,1123,2,0,B|40:192,2,99.9999999999999
392,60,3160,2,0,B|392:124,1,50
384,268,4086,6,0,B|352:316|288:316,2,99.9999999999999
108,308,6123,2,0,B|108:244,1,50
256,196,7049,6,0,B|256:84,2,99.9999999999999
408,332,9086,2,0,B|456:332,1,50
452,172,10012,6,0,B|420:124|356:124,2,99.9999999999999
180,96,12049,2,0,B|132:96,1,50
184,248,12975,6,0,B|136:280,2,50
256,284,13716,1,0
324,140,14457,6,0,B|372:108,2,50
256,184,15197,1,0
116,112,15938,6,0,B|68:172|68:172|68:208,1,99.9999999999999
132,244,16679,2,0,B|180:188|180:188|180:148,1,99.9999999999999
256,184,17420,1,0
416,184,18160,1,0
256,184,18901,6,0,B|208:232,2,50
336,188,19642,1,0
256,324,20382,6,0,B|221:360,2,50
216,256,21123,1,0
276,108,21864,6,0,B|224:76|164:112,1,99.9999999999999
200,180,22605,2,0,B|136:200|136:272,1,99.9999999999999
216,256,23345,1,0
360,184,24086,1,0
216,256,24827,1,0
352,336,25568,6,0,B|272:384|144:384,2,200
492,256,27790,2,0,B|512:152|512:152|488:52,2,200
344,192,30012,1,0
256,60,30753,1,0
168,192,31494,5,0
308,112,32234,2,0,B|340:188|300:260|300:260|264:224,2,200
164,184,34457,2,0,B|132:108|172:36|172:36|208:72,2,200,4|0|4
256,192,36308,12,0,38160
336,192,38901,6,0,B|336:228|336:228|352:256|352:300,2,99.9999999999999,4|0|0
256,184,40012,2,0,B|256:140|256:140|240:108|240:64,2,99.9999999999999
244,264,41123,1,0
164,268,41494,1,0
88,244,41864,1,0
64,168,42234,6,0,B|144:88|256:88,2,200,8|8|8
88,244,44086,1,0
164,268,44457,1,8
232,312,44827,6,0,B|332:252|332:252|372:252|396:236|416:208,1,200,4|0
344,172,45938,2,0,B|232:172,2,99.9999999999999,8|0|8
408,220,47049,2,0,B|436:170|404:112,1,99.9999999999999,0|8
344,172,47790,5,4
256,192,48160,12,4,50753
200,270,51494,5,0
200,270,51864,2,0,B|224:224|224:176|224:176|176:176|128:208,1,200,8|8
88,136,52975,1,0
156,96,53345,2,0,B|204:80|204:80|252:96,1,99.9999999999999,8|0
324,128,54086,6,0,B|324:336,2,200,8|8|8
252,92,55938,1,0
208,156,56308,1,8
208,236,56679,5,4
136,204,57049,2,0,B|108:156|140:104,1,99.9999999999999,8|0
208,156,57790,2,0,B|320:156,1,99.9999999999999,8|0
368,208,58531,6,0,B|396:256|368:312,1,99.9999999999999,8|0
300,268,59271,2,0,B|276:320|304:368,1,99.9999999999999,8|4
432,240,67790,6,0,B|432:192,2,50,0|0|0
352,240,68531,1,0
256,124,69271,6,0,B|256:172,2,50
336,124,70012,1,0
256,274,70753,6,0,B|256:146,1,99.9999999999999
256,88,71494,1,0
336,220,72234,1,0
176,220,72975,1,0
16,128,73716,5,0
28,212,74086,2,0,B|28:324,2,99.9999999999999
96,168,75197,1,0
176,144,75568,2,0,B|158:84|88:84,2,99.9999999999999
252,164,76679,6,0,B|284:260|252:372,2,200
396,232,78901,1,0
396,72,79642,1,0
240,104,80383,6,0,B|128:280,2,200
256,264,82605,2,0,B|316:264|316:264|376:280|376:280|452:280,2,200
400,196,84827,2,0,B|400:132|400:132|416:100|416:100|436:68|436:68|504:40,2,200
320,192,86679,6,0,B|208:192,1,99.9999999999999,8|0
198,113,87420,2,0,B|146:137|130:197,1,99.9999999999999,8|0
124,264,88160,1,8
56,224,88531,1,0
56,144,88901,1,8
134,186,89271,6,0,B|230:170|333:184,1,200,4|0
428,312,90753,2,0,B|332:328|220:312,1,200,4|0
256,192,92234,12,4,93716
284,144,94457,6,0,B|240:144|218:129|218:129|186:129,1,99.9999999999999
140,196,95197,2,0,B|140:228|140:228|156:260|156:324,2,99.9999999999999
188,128,96308,1,0
188,128,96679,1,0
188,128,97049,6,0,B|268:208|268:320,2,200,8|8|8
140,196,98901,1,0
68,228,99271,1,8
40,152,99642,6,0,B|64:104|120:112|120:112|132:52|200:48,1,200,4|0
204,132,100753,2,0,B|316:132,2,99.9999999999999,8|0|8
204,212,101864,2,0,B|176:260|204:312,1,99.9999999999999,0|8
268,264,102605,1,4
256,192,102975,12,4,105568
312,112,106308,5,0
312,112,106679,2,0,B|288:158|288:206|288:206|336:206|384:174,1,200,8|8
408,252,107790,1,0
340,296,108160,2,0,B|212:296,1,99.9999999999999,8|0
188,236,108901,6,0,B|168:140|168:140|188:28,2,200,8|8|8
260,200,110753,1,0
324,152,111123,1,8
404,144,111494,5,4
436,216,111864,2,0,B|436:328,1,99.9999999999999,8|0
356,344,112605,2,0,B|356:232,1,99.9999999999999,8|0
276,208,113345,2,0,B|276:320,1,99.9999999999999,8|0
204,344,114086,1,0
256,192,114457,12,0,117420
280,328,129271,5,0
208,296,129642,2,0,B|232:232|320:248|320:248|384:200,2,200,8|8|8
144,248,131494,2,0,B|112:296|144:348,1,99.9999999999999,0|8
60,356,132234,6,0,B|60:296|4:280,1,99.9999999999999,0|8
20,204,132975,1,0
92,172,133345,2,0,B|204:192|220:332,2,200,8|8|8
92,252,135197,6,0,B|48:296|-8:284,1,99.9999999999999,0|8
20,208,135938,1,0
20,128,136308,1,8
76,68,136679,1,0
148,104,137049,2,0,B|180:136|240:136,1,99.9999999999999,8|0
396,176,138160,6,0,B|396:64,1,99.9999999999999,4|8
316,76,138901,2,0,B|316:188,2,99.9999999999999,0|8|4
256,192,140012,12,4,142605
160,136,143345,6,0,B|108:112|56:136,1,99.9999999999999
32,208,144086,2,0,B|32:320,2,99.9999999999999
112,208,145197,1,0
192,200,145568,1,0
268,180,145938,6,0,B|304:140|360:152|360:152|364:92|420:76,2,200,8|8|8
248,260,147790,1,0
192,200,148160,1,8
116,224,148531,5,4
116,224,148901,2,0,B|48:32,2,200,8|8|8
96,300,150753,2,0,B|164:312|188:252,2,99.9999999999999,0|8|4
256,192,151864,12,0,153716
112,144,154457,5,4
112,144,154827,2,0,B|208:80|304:64,2,200,8|8|8
108,224,156679,1,0
144,296,157049,1,8
288,228,157790,6,0,B|288:116,2,99.9999999999999,8|0|8
248,300,158901,2,0,B|40:300,2,200,0|0|4
288,228,160753,5,8
348,280,161123,1,0
428,280,161494,1,8
484,224,161864,1,0
492,144,162234,2,0,B|432:63|324:43,1,200,8|8
296,120,163345,1,4
200,172,165197,5,0
256,112,165568,1,0
312,172,165938,1,0
256,232,166308,1,4
200,172,166679,6,0,B|-8:172,2,200,8|8|8
264,216,168531,2,0,B|292:168|260:108,2,99.9999999999999,0|8|0
228,288,169642,6,0,B|148:224|100:128,1,200,8|8
164,80,170753,1,0
244,88,171123,2,0,B|292:72|356:88,2,99.9999999999999,8|4|8
208,160,172234,5,4
252,228,172605,2,0,B|352:248|456:228,1,200,8|8
408,64,174086,1,8
328,48,174457,1,0
248,60,174827,6,0,B|140:88|88:188,2,200,8|8|8
288,132,176679,1,0
324,204,177049,1,8
308,284,177420,2,0,B|212:332|116:284,1,200,0|4
68,216,178531,6,0,B|68:160|32:120|32:120|68:88|68:12,2,200,8|8|8
140,256,180382,2,0,B|140:368,1,99.9999999999999,0|8
220,368,181123,2,0,B|300:288,1,99.9999999999999,0|8
284,216,181864,6,0,B|204:136,1,99.9999999999999,0|8
132,140,182605,2,0,B|52:216|52:336,2,200,0|0|2
256,192,184457,12,0,187049
