osu file format v9

[General]
AudioFilename: HolyVirgin.mp3
AudioLeadIn: 1500
PreviewTime: 38898
Countdown: 0
SampleSet: Soft
StackLeniency: 0.7
Mode: 0
LetterboxInBreaks: 0
EpilepsyWarning: 1

[Editor]
DistanceSpacing: 1
BeatDivisor: 4
GridSize: 4

[Metadata]
Title:Holy Virgin (Nightcore Mix)
Artist:Groove Coverage
Creator:Lizellota
Version:Collab
Source:
Tags:katty pie trance remix

[Difficulty]
HPDrainRate:8
CircleSize:4
OverallDifficulty:7
ApproachRate:8
SliderMultiplier:2
SliderTickRate:1

[Events]
//Background and Video events
0,0,"BG.jpg"
//Break Periods
2,62802,67037
2,117617,121852
//Storyboard Layer 0 (Background)
Sprite,Background,Centre,"SB\1.png",320,240 S,0,38906,,1.1536 M,0,38906,44832,345,209,289,260 F,0,44832,45203,1
Sprite,Background,Centre,"SB\4.png",320,240 S,0,44832,,1.16384 F,0,44832,45203,0,1 M,0,44832,50759,269,205,331,264 F,0,45203,50759,1 F,0,50759,51130,1
Sprite,Background,Centre,"SB\2.png",320,240 S,0,50759,,1.12288 F,0,50759,51130,0,1 M,0,50759,56686,283,271,357,213 F,0,51130,56686,1 F,0,56686,,1 F,0,56686,57056,1
Sprite,Background,Centre,"SB\3.png",320,240 S,0,56686,,1.11264 F,0,56686,57056,0,1 M,0,56686,59649,352,260,308,236 F,0,57056,59649,1 F,0,59649,60019,1,0
Sprite,Background,Centre,"SB\1.png",320,240 S,0,93727,,1.13312 M,0,93727,99654,348,221,278,271 F,0,99654,100024,1
Sprite,Background,Centre,"SB\4.png",320,240 S,0,99654,,1.16384 F,0,99654,100024,0,1 M,0,99654,105581,271,209,343,242 F,0,100024,105581,1 F,0,105581,105600,1 F,0,105600,,1 F,0,105600,105951,1
Sprite,Background,Centre,"SB\2.png",320,240 S,0,105581,,1.17408 F,0,105581,105951,0,1 M,0,105581,111507,284,267,372,199 F,0,105951,111507,1 F,0,111507,,1 F,0,111507,111878,1
Sprite,Background,Centre,"SB\3.png",320,240 S,0,111507,,1.1536 F,0,111507,111878,0,1 M,0,111507,114471,363,265,311,235 F,0,111878,114471,1 F,0,114471,114841,1,0
Sprite,Background,Centre,"SB\1.png",320,240 S,0,142622,,1.13312 M,0,142622,148549,348,221,278,271 F,0,148549,148919,1
Sprite,Background,Centre,"SB\4.png",320,240 S,0,148549,,1.16384 F,0,148549,148919,0,1 M,0,148549,154476,271,209,343,242 F,0,148919,154476,1 F,0,154476,,1 F,0,154476,154846,1
Sprite,Background,Centre,"SB\2.png",320,240 S,0,154476,,1.17408 F,0,154476,154846,0,1 F,0,154476,154846,0,1 M,0,154476,160402,284,267,372,199 F,0,154846,160402,1 F,0,154846,160402,1 F,0,160402,,1 F,0,160402,160773,1
Sprite,Background,Centre,"SB\3.png",320,240 S,0,160402,,1.1536 F,0,160402,160773,0,1 M,0,160402,163366,363,265,311,235 F,0,160773,163366,1 F,0,163366,163736,1,0
Sprite,Background,Centre,"SB\7.png",320,240 F,0,166329,,1 S,0,166329,,1.13312 M,0,166329,172256,355,213,281,269
Sprite,Background,Centre,"SB\100.png",320,240 S,0,178182,,1.14336 M,0,178182,184109,281,268,360,209 M,0,184109,,360,209
Sprite,Background,Centre,"SB\9.png",320,240 S,0,172256,,1.17408 M,0,172256,178182,267,201,368,272
Sprite,Background,Centre,"SB\11.png",320,240 M,0,184109,187072,314,176,321,289 S,0,184109,187072,1.27648,1.2048
//Storyboard Layer 1 (Fail)
//Storyboard Layer 2 (Pass)
//Storyboard Layer 3 (Foreground)
Sprite,Foreground,Centre,"SB\splash.png",320,240 M,0,13717,,320,240 F,0,13717,14458,1,0 S,0,13717,14458,1,1.14336 F,0,14458,19552,0 S,0,14458,19644,1.14336,0.9992262 F,0,19552,19644,0,1 F,0,19644,20385,1,0 S,0,19644,20385,0.9992262,1.142586 F,0,20385,25478,0 S,0,20385,25571,1.142586,0.9990327 F,0,25478,25571,0,1 F,0,25571,26126,1,0 S,0,25571,26126,0.9990327,1.142393 F,0,26126,28442,0 S,0,26126,28534,1.142393,0.9990327 F,0,28442,28534,0,1 F,0,28534,29090,1,0 S,0,28534,29090,0.9990327,1.142393 F,0,29090,31405,0,0.001729826 S,0,29090,31497,1.142393,0.9990325 F,0,31405,31497,0.001729826,1 F,0,31497,32053,1,0.00179857 S,0,31497,32053,0.9990325,1.142393 F,0,32053,34368,0.00179857,0.005250564 S,0,32053,34461,1.142393,0.9990327 F,0,34368,34461,0.005250564,1 F,0,34461,35016,1,0.005389241 S,0,34461,35016,0.9990327,1.142393 F,0,35016,62520,0.005389241 S,0,35016,62612,1.142393,0.9990329 F,0,62520,62612,0.005389241,1 F,0,62612,63724,1,0.005389241 S,0,62612,63724,0.9990329,1.142393 F,0,63724,65483,0.005389241 S,0,63724,65576,1.142393,0.999033 F,0,65483,65576,0.005389241,1 F,0,65576,66687,1,0.005389241 S,0,65576,66687,0.999033,1.142393 F,0,66687,68446,0.005389241 S,0,66687,68539,1.142393,0.9983877 F,0,68446,68539,0.005389241,1 F,0,68539,69280,1,0.005389241 S,0,68539,69280,0.9983877,1.141748 F,0,69280,71410,0.005389241,0.007962622 S,0,69280,71502,1.141748,0.9983879 F,0,71410,71502,0.007962622,1 F,0,71502,72243,1,0.008073772 S,0,71502,72243,0.9983879,1.141748 F,0,72243,74373,0.008073772,0.01320428 S,0,72243,74466,1.141748,0.9983879 F,0,74373,74466,0.01320428,1 F,0,74466,75207,1,0.01342828 S,0,74466,75207,0.9983879,1.141748 F,0,75207,77336,0.01342828,0.01980671 S,0,75207,77429,1.141748,0.9983878 F,0,77336,77429,0.01980671,1 F,0,77429,78170,1,0.02008534 S,0,77429,78170,0.9983878,1.141748 F,0,78170,80300,0.02008534 S,0,78170,80392,1.141748,0.9974205 F,0,80300,80392,0.02008534,1 F,0,80392,80948,1,0.02008534 S,0,80392,80948,0.9974205,1.14078 F,0,80948,83263,0.02008534 S,0,80948,83356,1.14078,0.9974205 F,0,83263,83356,0.02008534,1 F,0,83356,83911,1,0.02008534 S,0,83356,83911,0.9974205,1.14078 F,0,83911,86226,0.02008534,0.02857244 S,0,83911,86319,1.14078,0.9974205 F,0,86226,86319,0.02857244,1 F,0,86319,86875,1,0.02891339 S,0,86319,86875,0.9974205,1.14078 F,0,86875,89190,0.02891339,0.03563258 S,0,86875,89282,1.14078,0.9974205 F,0,89190,89282,0.03563258,1 F,0,89282,89838,1,0.0358996 S,0,89282,89838,0.9974205,1.14078 F,0,89838,117341,0.0358996 S,0,89838,117434,1.14078,0.9966885 F,0,117341,117434,0.0358996,1 F,0,117434,118360,1,0.0358996 S,0,117434,118360,0.9966885,1.099088 F,0,118360,120305,0.0358996,0.0438526 S,0,118360,120397,1.099088,0.9966885 F,0,120305,120397,0.0438526,1 F,0,120397,121323,1,0.04422878 S,0,120397,121323,0.9966885,1.099088 F,0,121323,123268,0.04422878,0.05013911 S,0,121323,123361,1.099088,0.9966884 F,0,123268,123361,0.05013911,1 F,0,123361,124287,1,0.05042171 S,0,123361,124287,0.9966884,1.099088 F,0,124287,126231,0.05042171,0.05629359 S,0,124287,126324,1.099088,0.9966884 F,0,126231,126324,0.05629359,1 F,0,126324,127250,1,0.0565745 S,0,126324,127250,0.9966884,1.099088 F,0,127250,129195,0.0565745,0.05754731 S,0,127250,129287,1.099088,0.9966884 F,0,129195,129287,0.05754731,1 F,0,129287,129843,1,0.05759332 S,0,129287,129843,0.9966884,1.099088 F,0,129843,132158,0.05759332,0.05922285 S,0,129843,132251,1.099088,0.9966884 F,0,132158,132251,0.05922285,1 F,0,132251,132806,1,0.05928831 S,0,132251,132806,0.9966884,1.099088 F,0,132806,135121,0.05928831,0.06417686 S,0,132806,135214,1.099088,0.9966886 F,0,135121,135214,0.06417686,1 F,0,135214,135770,1,0.06437325 S,0,135214,135770,0.9966886,1.099088 F,0,135770,138085,0.06437325,0.06922867 S,0,135770,138177,1.099088,0.9966887 F,0,138085,138177,0.06922867,1 F,0,138177,138733,1,0.06942163 S,0,138177,138733,0.9966887,1.099088
Sprite,Foreground,Centre,"SB\black.png",320,240 M,0,-2576,,320,240 F,0,-1098,383,1 F,0,383,1494,1,0 F,0,1494,35942,0,0.00402683 F,0,35942,37424,0.00402683,1 F,0,37424,38813,1 F,0,38813,,1 F,0,38813,38906,1 F,0,38906,38998,1,0 F,0,38998,90764,0 F,0,90764,92246,0,1 F,0,92246,93727,1 F,0,93727,93820,1,0 F,0,93820,139659,0 F,0,139659,141141,0,1 F,0,141141,142622,1 F,0,142622,142715,1,0 F,0,142715,152994,0 F,0,163366,,0 F,0,163366,164847,0,1 F,0,164847,166329,1 F,0,166329,166422,1,0 F,0,166422,186980,0 F,0,186980,187072,0,1 F,0,187072,191638,1
Sprite,Foreground,Centre,"SB\white.png",320,240 M,0,166329,,320,240 F,0,166329,166699,1,0 F,0,166699,172163,0 F,0,172163,172256,0,1 F,0,172256,172626,1,0 F,0,172626,178090,0 F,0,178090,178182,0,1 F,0,178182,178553,1,0.02162164 F,0,178553,184016,0.02162164,0.03458662 F,0,184016,184109,0.03458662,1 F,0,184109,184479,1,0.03480734 F,0,184479,186984,0.03480734 F,0,186984,187076,0.03480734,1 F,0,187076,187261,1,0
Sprite,Foreground,Centre,"SB\6.png",320,240 F,0,165958,166144,1 F,0,166144,166236,1,0
Sprite,Foreground,Centre,"SB\5.png",320,240 F,0,165588,165773,1 F,0,165773,165866,1,0
Sprite,Foreground,Centre,"SB\8.png",320,240 F,0,165218,165403,1 F,0,165403,165495,1,0
Sprite,Foreground,Centre,"SB\KersiTyan.png",320,240 M,0,387,,217,429 S,0,387,,0.8771195 F,0,387,1127,0,1 F,0,1127,47429,1 F,0,47429,47800,1,0 F,0,47800,93731,0 F,0,93731,94102,0,1 F,0,94102,102621,1,0.9985803 F,0,102621,102992,0.9985803,0 F,0,102992,105585,0 F,0,105585,105955,0,1 F,0,105955,142256,1,0.9919754 F,0,142256,142626,0.9919754,0
Sprite,Foreground,Centre,"SB\Katty Pie.png",320,240 M,0,49281,,470,107 S,0,49281,,0.9180801 F,0,49281,49652,0,1 F,0,49652,62616,1,0.9984145 F,0,62616,62987,0.9984145,0 F,0,62987,67802,0 F,0,67802,68173,0,1 F,0,68173,93361,1,0.9946544 F,0,93361,93731,0.9946544,0 F,0,93731,142626,0 F,0,142626,142997,0,1 F,0,142997,187076,1,0.9921845
//Storyboard Sound Samples
//Background Colour Transformations
3,100,163,162,255

[TimingPoints]
380,370.37037037037,4,1,1,40,1,0
12972,-100,4,2,1,40,0,0
13713,-100,4,1,1,40,0,0
14083,-100,4,2,1,40,0,0
15009,-100,4,1,1,40,0,0
15379,-100,4,2,1,40,0,0
16676,-100,4,1,1,40,0,0
16861,-100,4,2,1,40,0,0
17972,-100,4,1,1,40,0,0
18342,-100,4,2,1,40,0,0
19639,-100,4,1,1,40,0,0
19824,-100,4,2,1,40,0,0
20935,-100,4,1,1,40,0,0
21305,-100,4,2,1,40,0,0
22602,-100,4,1,1,40,0,0
22787,-100,4,2,1,40,0,0
23898,-100,4,1,1,40,0,0
24824,-100,4,2,1,40,0,0
25565,-100,4,1,1,40,0,0
25750,-100,4,2,1,40,0,0
26861,-100,4,1,1,40,0,0
27231,-100,4,2,1,40,0,0
28528,-100,4,1,1,40,0,0
28713,-100,4,2,1,40,0,0
29824,-100,4,1,1,40,0,0
30194,-100,4,2,1,40,0,0
31491,-100,4,1,1,40,0,0
31676,-100,4,2,1,40,0,0
32787,-100,4,1,1,40,0,0
33157,-100,4,2,1,40,0,0
35750,-100,4,1,1,40,0,0
35935,-100,4,2,1,40,0,0
38898,-100,4,1,1,60,0,0
49639,-100,4,2,1,40,0,0
50750,-100,4,1,1,60,0,0
59824,-100,4,2,1,30,0,0
60935,-100,4,1,1,30,0,0
61491,-100,4,2,1,30,0,0
62602,-100,4,1,1,40,0,0
67787,-100,4,2,1,40,0,0
68528,-100,4,1,1,40,0,0
68719,-100,4,2,1,40,0,0
69824,-100,4,1,1,40,0,0
70194,-100,4,2,1,40,0,0
71491,-100,4,1,1,40,0,0
71676,-100,4,2,1,40,0,0
72787,-100,4,1,1,40,0,0
73157,-100,4,2,1,40,0,0
74454,-100,4,1,1,40,0,0
74639,-100,4,2,1,40,0,0
75750,-100,4,1,1,40,0,0
76305,-100,4,2,1,40,0,0
77417,-100,4,1,1,40,0,0
77602,-100,4,2,1,40,0,0
78713,-100,4,1,1,40,0,0
79083,-100,4,2,1,40,0,0
80379,-100,4,1,1,40,0,0
80565,-100,4,2,1,40,0,0
81676,-100,4,1,1,40,0,0
82046,-100,4,2,1,40,0,0
83342,-100,4,1,1,40,0,0
83528,-100,4,2,1,40,0,0
84639,-100,4,1,1,40,0,0
85194,-100,4,2,1,40,0,0
86305,-100,4,1,1,40,0,0
86491,-100,4,2,1,40,0,0
87602,-100,4,1,1,40,0,0
87972,-100,4,2,1,40,0,0
90565,-100,4,1,1,40,0,0
90750,-100,4,2,1,40,0,0
93713,-100,4,1,1,60,0,0
102602,-100,4,1,1,40,0,0
105565,-100,4,1,1,60,0,0
114454,-100,4,1,1,30,0,0
116305,-100,4,2,1,40,0,0
117417,-100,4,1,1,40,0,0
117787,-100,4,2,1,40,0,0
129268,-100,4,1,1,40,0,0
129454,-100,4,2,1,40,0,0
130565,-100,4,1,1,40,0,0
130935,-100,4,2,1,40,0,0
132231,-100,4,1,1,40,0,0
132417,-100,4,2,1,40,0,0
133528,-100,4,1,1,40,0,0
133898,-100,4,2,1,40,0,0
135194,-100,4,1,1,40,0,0
135379,-100,4,2,1,40,0,0
136491,-100,4,1,1,40,0,0
136861,-100,4,2,1,40,0,0
139454,-100,4,1,1,40,0,0
139639,-100,4,2,1,40,0,0
142602,-100,4,1,1,60,0,0
153342,-100,4,2,1,40,0,0
154454,-100,4,1,1,60,0,0
163528,-100,4,2,1,40,0,0
165194,-66.6666666666667,4,1,1,30,0,0
165565,-66.6666666666667,4,1,1,40,0,0
165935,-66.6666666666667,4,1,1,50,0,0
166305,-66.6666666666667,4,1,1,60,0,1
169639,-100,4,1,1,60,0,1
184083,-133.333333333333,4,1,1,40,0,0
184454,-133.333333333333,4,2,1,40,0,0
186305,-133.333333333333,4,2,1,5,0,0

[Colours]
Combo1 : 255,255,28
Combo2 : 255,128,192
Combo3 : 172,0,255

[HitObjects]
160,64,1120,2,0,B|256:32|360:64,2,200
256,336,3157,2,0,B|256:224,1,100
352,320,4083,6,0,B|256:352|152:320,2,200
256,48,6120,2,0,B|256:160,1,100
432,96,7046,6,0,B|432:144|400:192|400:192|384:240|384:312,2,200
168,192,9083,1,0
48,192,9268,1,0
80,288,10009,6,0,B|80:240|112:192|112:192|128:144|128:72,2,200
344,192,12046,1,0
464,192,12231,1,0
72,128,12972,6,0,B|216:272,1,200
256,72,13713,1,0
416,192,14083,1,0
256,312,14454,2,0,B|256:208,1,100
340,152,14824,2,0,B|372:104|436:104,1,100
488,192,15194,1,0
392,368,15565,1,0
256,224,15935,6,0,B|256:184|224:176|224:176|224:136,1,100,2|0
144,200,16305,2,0,B|144:240|176:248|176:248|176:288,1,100,2|0
80,304,16676,1,0
40,216,16861,1,0
72,120,17046,1,0
160,64,17231,1,0
264,72,17417,1,0
336,144,17602,2,0,B|408:216,1,100
336,288,17972,2,0,B|264:216,1,100
48,192,18898,6,0,B|80:160|80:160|136:160,1,100,2|0
224,208,19268,2,0,B|192:240|192:240|136:240,1,100,2|0
48,296,19639,1,0
48,96,20009,1,0
224,208,20379,1,0
256,112,20565,1,0
288,208,20750,1,0
256,112,20935,2,0,B|256:216,1,100
440,320,21491,6,0,B|480:216|432:120,1,200,0|2
368,56,22046,2,0,B|320:32|264:56,1,100,0|2
312,120,22417,2,0,B|264:144|212:120,1,100
24,64,22972,2,0,B|24:136|64:176|64:272,1,200
136,192,23528,2,0,B|240:192,2,100
136,192,24083,1,0
376,192,24824,1,0
256,56,25565,5,0
280,152,25750,1,0
352,88,25935,2,0,B|480:88|504:208,1,200,8|0
416,248,26491,1,0
320,272,26676,2,0,B|192:272|168:152,1,200,8|0
144,72,27231,2,0,B|80:96|80:168,1,100,0|8
32,232,27602,2,0,B|92:264|146:217,1,100
216,192,27972,1,0
256,96,28157,1,8
296,192,28342,1,0
352,272,28528,6,0,B|304:320|216:320|168:272,1,200,0|8
256,224,29083,2,0,B|256:120,1,100
256,24,29454,2,0,B|208:24|160:56,1,100,0|8
349,54,29824,2,0,B|304:24|256:24,1,100
352,200,30379,1,8
160,200,30750,1,0
160,56,31120,1,8
88,128,31305,1,0
160,200,31491,6,0,B|256:176|256:176|357:201,1,200,0|8
488,344,32231,2,0,B|392:368|392:368|291:343,1,200,0|8
200,304,32787,2,0,B|216:248|280:248,1,100
377,249,33157,2,0,B|377:145,1,100,0|8
375,55,33528,2,0,B|407:103|375:151,1,100
280,144,33898,1,0
184,144,34083,1,8
24,264,34454,6,0,B|104:264|144:288|224:288,1,200,4|8
312,336,35009,1,0
340,240,35194,1,0
280,160,35379,1,0
180,160,35565,1,8
136,252,35750,1,0
236,248,35935,2,0,B|324:64,1,200,4|8
256,192,36398,12,4,37417
248,72,38898,6,0,B|200:120|128:120|64:184,2,200,4|0|0
264,312,40009,2,0,B|312:264|384:264|448:200,2,200
176,256,40935,1,0
104,192,41120,1,0
256,64,41491,1,0
416,192,41861,1,0
216,224,42231,6,0,B|56:360,1,200,8|0
296,160,42972,2,0,B|456:24,1,200,8|0
488,120,43528,1,0
416,192,43713,1,8
256,56,44083,1,0
256,256,44454,1,8
256,152,44639,1,0
256,152,44731,1,0
256,152,44824,5,4
64,200,45194,2,0,B|16:248|16:336|64:384,2,200,8|0|8
240,248,46305,2,0,B|286:201|286:113|238:65,2,200,0|8|0
120,232,47231,1,0
344,256,47417,1,8
272,144,47602,1,0
184,336,47787,1,0
256,192,48157,12,8,49639
160,168,50009,5,0
184,120,50102,1,0
208,72,50194,1,0
256,96,50287,1,0
304,72,50379,1,8
328,120,50472,1,0
352,168,50565,1,0
256,192,50750,5,4
400,328,51120,1,8
256,192,51491,1,0
112,328,51861,1,8
112,125,52231,2,0,B|112:64|170:52,1,100
256,104,52602,1,8
344,53,52787,2,0,B|400:64|399:125,1,100
328,256,53157,1,0
328,256,53342,2,0,B|328:312|276:340|216:316|216:316|216:268,1,200,8|0
204,68,54083,5,8
120,124,54268,1,0
120,224,54454,1,0
320,224,54824,1,8
120,224,55194,5,0
120,124,55379,1,0
204,68,55565,1,8
320,224,55935,2,0,B|320:280|372:308|432:284|432:284|432:236,1,200,0|8
256,332,56676,5,4
256,332,56861,1,0
208,192,57046,1,8
208,192,57231,1,0
256,48,57417,1,0
256,48,57509,1,0
256,48,57602,1,0
208,192,57787,2,0,B|424:192,2,200,8|0|8
212,92,58713,5,0
120,136,58898,1,0
36,192,59083,1,0
120,248,59268,1,8
208,296,59454,1,0
380,192,59639,6,0,B|452:176|424:32|352:48,1,200,0|8
304,132,60194,1,0
224,192,60379,1,0
224,192,60472,1,0
224,192,60565,1,0
304,252,60750,1,8
192,260,60935,1,0
112,192,61120,5,0
112,192,61491,1,8
312,192,61861,1,0
336,192,61954,1,0
360,192,62046,1,0
384,192,62139,1,0
408,192,62231,1,8
432,192,62324,1,0
456,192,62417,1,0
480,192,62509,1,0
504,192,62602,1,0
152,56,67787,6,0,B|120:76|116:112|136:148|176:160|204:148|204:148|204:191,1,200
256,280,68342,1,0
308,191,68528,2,0,B|308:148|308:148|336:160|376:148|396:112|392:76|360:56,2,200
256,280,69454,1,0
156,272,69639,1,0
96,192,69824,1,0
128,96,70009,2,0,B|192:64|192:64|216:84|240:64|240:64|307:97,1,200
460,224,70750,5,2
256,372,71120,1,2
51,223,71491,2,0,B|36:104|114:41,1,200
176,124,72046,2,0,B|124:152|152:208,1,100
256,208,72417,1,0
359,208,72602,2,0,B|388:152|336:124,1,100
399,42,72972,2,0,B|476:104|460:223,1,200
296,336,73713,5,2
193,322,73898,2,0,B|136:308|130:252,1,100,0|2
132,152,74268,1,0
208,88,74454,2,0,B|232:116|256:176|256:176|280:116|306:89,1,200
388,272,75194,1,0
188,272,75565,1,0
332,136,75750,1,0
332,136,75935,2,0,B|308:108|284:48|284:48|260:108|236:136,1,200
44,68,76676,5,2
68,164,76861,1,0
120,248,77046,1,2
204,300,77231,1,0
300,324,77417,1,0
452,192,77787,1,0
300,60,78157,1,0
148,192,78528,1,0
148,192,78713,2,0,B|48:192,1,100
248,192,79268,6,0,B|272:192|272:192|288:200|304:192|304:192|320:200|336:192|336:192|352:200|368:192|368:192|384:200|400:192|400:192|416:200|432:192|432:192|448:200,1,200
300,60,80009,1,0
96,60,80194,1,0
200,224,80380,5,0
400,225,80565,2,0,B|444:192|428:136,1,100,0|8
332,160,80935,1,0
232,156,81120,1,0
132,156,81305,1,0
60,228,81491,1,8
232,156,81861,6,0,B|227:165|227:165|235:181|227:197|227:197|235:213|227:229|227:229|235:245|227:261|227:261|235:277|227:293|227:293|235:309|227:325|227:325|227:349,2,200,0|8|0
232,156,82972,1,8
408,60,83342,6,0,B|456:120|432:152|456:184|407:244,1,200,0|8
320,196,83898,2,0,B|348:148|320:101,1,100
256,24,84268,1,0
191,101,84454,2,0,B|164:148|192:196,1,100,8|0
104,244,84824,2,0,B|55:184|79:152|55:120|104:60,1,200,0|8
104,60,85565,1,0
304,68,85935,5,8
400,100,86120,1,0
432,192,86305,1,0
396,284,86491,1,0
300,308,86676,1,8
200,136,87046,1,0
96,308,87417,1,8
96,308,87787,6,0,B|40:216,1,100
104,144,88157,2,0,B|164:236,1,100,8|0
224,152,88528,2,0,B|160:60,2,100,0|0|8
404,64,89268,5,4
224,152,89639,1,8
404,236,90009,1,0
320,292,90194,1,0
228,252,90380,1,8
224,152,90565,1,0
256,192,90750,12,8,91861
256,56,92231,5,4
396,112,92417,1,0
332,248,92602,1,8
192,196,92787,1,0
284,156,92972,5,0
221,291,93157,1,0
80,240,93342,1,8
139,102,93528,1,0
284,156,93713,6,0,B|384:112|484:160,1,200,4|0
228,228,94454,2,0,B|128:272|28:224,1,200,0|0
204,152,95194,1,0
256,64,95380,1,0
308,152,95565,1,0
356,240,95750,1,0
156,236,95935,1,0
356,240,96305,2,0,B|392:140|356:40,1,200
154,41,97046,6,0,B|120:138|156:238,1,200,8|0
154,41,97787,2,0,B|358:41,1,200,8|0
456,44,98342,1,0
444,144,98528,1,8
348,176,98713,1,0
256,140,98898,1,0
64,192,99268,1,8
180,248,99454,1,0
180,248,99546,1,0
180,248,99639,5,4
208,140,99824,2,0,B|308:140,1,100,0|8
332,248,100194,2,0,B|408:324,1,100
180,248,100565,2,0,B|104:324,1,100,0|8
180,248,100935,1,0
208,140,101120,6,0,B|240:124|256:56|256:56|272:124|308:144,1,200,0|8
256,232,101676,1,0
256,332,101861,1,0
348,296,102046,1,0
312,180,102231,1,8
180,248,102417,1,0
112,124,102602,1,0
256,192,102972,12,4,105565
256,72,105935,6,0,B|360:72|440:152,1,200,8|0
256,72,106676,2,0,B|152:72|72:152,1,200,8|0
195,165,107231,1,0
323,165,107417,1,8
256,240,107602,2,0,B|256:352,1,100
256,240,107972,1,0
256,240,108065,1,0
256,240,108157,2,0,B|256:132,1,100,8|0
256,44,108528,1,0
454,124,108898,6,0,B|382:124|382:124|342:140|342:140|258:140,1,200,8|0
60,124,109639,2,0,B|132:124|132:124|172:140|172:140|256:140,1,200,8|0
256,240,110194,1,0
256,52,110380,1,8
208,140,110565,2,0,B|316:140,1,100
384,80,110935,1,0
384,200,111120,1,8
464,140,111305,1,0
464,140,111398,1,0
464,140,111491,5,4
468,240,111676,1,0
388,300,111861,1,8
480,340,112046,1,0
388,300,112231,2,0,B|472:236,1,100
480,340,112602,2,0,B|466:229,1,100,8|0
464,140,112972,1,0
384,80,113157,1,0
304,140,113342,1,8
120,64,113713,6,0,B|72:108|72:196|120:252,2,200,0|8|0
256,344,115750,2,0,B|256:244,1,100
256,192,116120,12,0,117417
256,40,122602,5,2
168,192,122972,1,2
344,192,123342,1,2
188,352,124083,6,0,B|259:280,1,100
328,352,124454,2,0,B|257:280,1,100
352,252,124824,2,0,B|252:204|160:252,1,200
256,68,125565,6,0,B|224:100|236:124|196:164,2,100,2|0|2
256,316,126120,2,0,B|288:284|276:260|306:230,1,100,0|2
460,96,127046,1,0
436,192,127231,1,0
360,128,127417,1,0
328,224,127602,1,0
248,164,127787,5,2
248,340,128528,1,0
64,256,128898,2,0,B|168:256,2,100
164,84,129639,6,0,B|256:16|352:88,1,200,8|0
352,192,130194,1,0
348,298,130380,2,0,B|256:368|164:300,1,200,8|0
256,128,130935,2,0,B|176:208,1,100,0|8
256,256,131305,2,0,B|336:176,1,100
256,256,131676,1,0
256,128,131861,1,8
60,152,132231,6,0,B|132:152|172:192|256:192,1,200,0|8
450,152,132972,2,0,B|378:152|338:192|254:192,1,200,0|8
256,292,133528,1,0
256,92,133713,1,0
56,84,134083,2,0,B|124:152|124:272,1,200,8|0
456,84,134824,1,8
456,84,135009,1,0
456,84,135194,6,0,B|388:152|388:272,1,200,0|8
256,116,135935,2,0,B|256:328,2,200,0|8|0
327,187,136861,2,0,B|255:115,1,100,0|8
185,187,137231,2,0,B|257:115,1,100
204,29,137602,1,0
328,187,137787,1,8
176,316,138157,6,0,B|332:184,1,200,4|8
408,124,138713,1,0
336,68,138898,2,0,B|183:197,1,200,0|8
104,260,139454,1,0
183,197,139639,1,4
256,192,139824,12,4,141120
256,192,141213,12,4,142602
256,36,142972,5,0
256,348,143342,1,0
256,192,143713,2,0,B|356:192,1,100
256,192,144083,2,0,B|156:192,1,100
156,92,144454,1,0
156,92,144639,1,0
256,76,144824,2,0,B|368:44|432:137,2,200
144,244,145935,5,8
164,340,146120,1,0
236,272,146305,1,0
256,368,146491,1,0
332,300,146676,1,8
308,204,146861,1,0
212,172,147046,2,0,B|168:124|220:60|284:88|284:88|284:48,1,200,0|8
384,48,147602,1,0
384,148,147787,2,0,B|428:196|376:260|312:232|312:232|312:271,1,200,0|8
112,292,148528,6,0,B|112:192,1,100,4|0
112,92,148898,2,0,B|112:192,1,100,8|0
112,192,149268,2,0,B|164:192|164:192|204:168|204:168|248:192|248:192|304:192,1,200,0|8
364,268,149824,1,0
300,344,150009,2,0,B|248:344|248:344|208:368|208:368|164:344|164:344|108:344,2,200,0|8|0
364,268,150935,1,0
396,172,151120,1,8
336,92,151305,1,0
236,96,151491,1,0
256,192,151861,12,8,153342
256,48,153713,5,0
256,72,153805,1,0
256,96,153898,1,0
256,120,153991,1,0
256,144,154083,1,8
256,168,154176,1,0
256,192,154268,1,0
256,292,154454,5,4
256,292,154639,2,0,B|316:300|338:249,1,100,0|8
256,292,155009,2,0,B|196:300|173:249,1,100
256,68,155565,1,8
424,176,155935,2,0,B|472:240|424:304|424:304|362:304,1,200,0|8
256,196,156491,1,0
149,304,156676,2,0,B|88:304|88:304|40:240|88:176,2,200,0|8|0
120,104,157787,5,8
204,48,157972,1,0
256,136,158157,1,0
308,48,158342,1,0
392,104,158528,1,8
392,104,158713,1,0
328,184,158898,2,0,B|328:220|296:240|256:252|216:240|188:220|188:176,1,200,0|8
148,92,159454,1,0
108,184,159639,2,0,B|71:183|51:211|39:251|51:291|71:323|111:323,1,200,0|8
312,324,160380,6,0,B|376:312|353:249,1,100,4|0
252,252,160750,1,8
208,160,160935,1,0
288,100,161120,1,0
336,188,161305,1,0
384,100,161491,1,8
464,160,161676,1,0
420,252,161861,2,0,B|388:360|260:334,2,200,0|8|0
92,132,162972,2,0,B|124:24|251:49,1,200,8|0
256,192,163713,12,0,164824
136,148,165194,6,0,B|180:117|244:141|256:192,1,150.000005722046
376,148,165565,6,0,B|331:117|267:141|256:192,1,150.000005722046,0|0
136,236,165935,6,0,B|180:266|244:242|256:192,1,150.000005722046
376,236,166305,6,0,B|331:266|267:242|256:192,1,150.000005722046,4|0
256,40,166676,1,8
108,76,166861,1,0
224,172,167046,1,0
108,76,167231,1,0
72,220,167417,1,8
364,327,167787,6,0,B|416:272|324:204|324:204|440:216|425:132,1,300.000011444092,0|8
256,284,168528,1,0
86,132,168898,2,0,B|72:216|188:204|188:204|96:272|147:327,1,300.000011444092,8|0
256,160,169639,5,8
420,47,170009,2,0,B|472:80|449:131,1,100
368,188,170379,1,8
448,251,170565,2,0,B|472:304|420:336,1,100
320,336,170935,1,0
232,288,171120,1,8
164,212,171305,6,0,B|104:200|107:141,1,100
208,136,171676,2,0,B|174:85|217:46,1,100,0|8
292,112,172046,2,0,B|304:51|362:55,1,100,0|4
364,156,172417,2,0,B|415:121|453:165,1,100,0|8
308,300,172972,6,0,B|308:244|256:220|256:220|204:244|204:304,1,200,0|8
308,84,173713,2,0,B|308:140|256:164|256:164|204:140|204:80,1,200,0|8
116,40,174268,1,0
48,112,174454,1,0
48,212,174639,1,0
108,292,174824,2,0,B|148:332|196:296|196:296|244:332|292:292,1,200,8|0
352,100,175565,6,0,B|452:100,2,100,8|0|0
256,68,176120,1,0
160,100,176305,2,0,B|60:100,2,100,8|0|0
256,68,176861,2,0,B|256:192,1,100,0|8
356,340,177417,1,0
156,336,177787,1,8
85,45,178157,6,0,B|32:68|20:124|32:184|84:205,1,200,4|8
176,172,178713,2,0,B|144:124|176:79,1,100
256,132,179083,1,0
336,172,179268,2,0,B|368:124|335:79,1,100,8|0
426,45,179639,2,0,B|480:68|492:124|480:184|427:205,1,200,0|8
256,304,180379,1,0
168,124,180750,2,0,B|208:84|256:124|256:124|304:84|348:128,1,200,8|0
392,320,181491,5,8
452,240,181676,2,0,B|476:192|450:143,1,100
392,60,182046,1,0
292,60,182231,2,0,B|268:108|293:156,1,100,8|0
296,264,182602,2,0,B|296:312|216:356|160:276|197:227,1,200,0|8
36,108,183342,2,0,B|36:60|116:16|172:96|135:145,1,200,0|8
104,284,184083,5,0
104,284,184454,1,0
252,320,184824,2,0,B|328:320,1,75.0000028610231
360,252,185194,2,0,B|284:252,1,75.0000028610231
252,184,185565,2,0,B|336:184,1,75.0000028610231
360,116,185935,2,0,B|276:116,1,75.0000028610231
128,112,186305,6,0,B|108:144|128:172|128:172|112:200|128:224|128:224|128:268,2,150.000005722046
