osu file format v9

[General]
AudioFilename: HolyVirgin.mp3
AudioLeadIn: 0
PreviewTime: 39012
Countdown: 0
SampleSet: Normal
StackLeniency: 0.7
Mode: 0
LetterboxInBreaks: 1

[Editor]
Bookmarks: 33565
DistanceSpacing: 1
BeatDivisor: 4
GridSize: 4

[Metadata]
Title:Holy Virgin (Nightcore Mix)
Artist:Groove Coverage
Creator:-Bakari-
Version:Hard
Source:
Tags:Dark_Ai Gabe remix Axel Konrad DJ Novus Melanie Munch 21st century

[Difficulty]
HPDrainRate:6
CircleSize:4
OverallDifficulty:7
ApproachRate:8
SliderMultiplier:1.6
SliderTickRate:1

[Events]
//Background and Video events
0,0,"bg.jpg"
//Break Periods
2,62454,66889
//Storyboard Layer 0 (Background)
//Storyboard Layer 1 (Fail)
//Storyboard Layer 2 (Pass)
//Storyboard Layer 3 (Foreground)
//Storyboard Sound Samples
//Background Colour Transformations
3,100,163,162,255

[TimingPoints]
232,370.37037037037,4,2,0,40,1,0
38750,-100,4,1,1,40,0,1
47639,-100,4,2,0,40,0,0
50602,-100,4,1,1,40,0,1
59491,-100,4,2,0,40,0,0
93565,-100,4,1,1,40,0,1
102454,-100,4,1,1,40,0,0
105417,-100,4,1,1,35,0,1
114306,-100,4,2,0,25,0,0

[Colours]
Combo1 : 232,85,122
Combo2 : 136,181,255
Combo3 : 255,210,128

[HitObjects]
104,348,12824,6,0,B|144:364|196:348,1,80,0|0
256,324,13195,2,0,B|284:296|280:240,1,80
200,264,13565,1,4
200,264,13750,1,0
120,280,13935,2,0,B|112:232|144:204|144:204|152:128,2,160,8|0|8
56,328,14861,1,0
44,248,15047,2,0,B|48:208|72:168|72:168|80:88,1,160,4|8
160,76,15602,1,0
200,144,15787,2,0,B|200:192|256:200|312:192|312:144,1,160,0|8
352,76,16343,1,0
432,93,16528,6,0,B|440:168|440:168|464:208|468:248,1,160,4|8
440,324,17084,1,0
392,260,17269,2,0,B|352:300|364:344|364:344|282:366,1,160,0|8
256,292,17824,1,0
213,361,18009,2,0,B|148:344|148:344|160:300|120:260,1,160,4|8
104,100,18750,2,0,B|108:164|108:164|160:172|191:209,1,160,0|8
256,156,19306,1,0
325,197,19491,6,0,B|356:160|408:152|408:152|412:84,1,160,4|8
453,234,20232,2,0,B|396:228|368:276|368:276|300:288,1,160,0|8
256,348,20787,1,0
204,286,20972,2,0,B|144:276|144:276|116:228|57:234,1,160,4|8
72,316,21528,1,0
60,233,21713,2,0,B|88:180|88:180|136:144|136:144|152:104,1,160,0|8
216,152,22269,1,0
256,84,22454,5,4
296,152,22639,1,0
361,106,22824,2,0,B|376:144|376:144|424:180|424:180|451:233,2,160,8|0|8
344,28,23750,1,0
420,56,23935,2,0,B|434:93|434:93|482:129|482:129|509:182,1,160,4|8
336,192,24676,1,0
176,192,25046,1,8
152,116,25232,1,0
76,96,25417,6,0,B|76:164|76:164|48:176|32:196|16:224|24:252,1,160,4|8
108,248,25972,2,0,B|136:284|192:280,1,80,0|0
176,192,26343,1,0
220,124,26528,2,0,B|256:156|256:196,1,80,8|0
256,272,26898,1,4
256,351,27084,1,0
328,312,27269,2,0,B|348:268|328:232|328:232|344:192|316:144,1,160,8|0
256,200,27824,1,0
323,156,28009,2,0,B|328:108|371:88,1,80,8|0
404,160,28380,6,0,B|424:192|412:224|412:224|436:272|408:332,1,160,4|8
328,312,28935,1,0
256,276,29121,1,0
184,312,29306,1,0
96,313,29491,2,0,B|76:272|100:224|100:224|88:188|108:160,1,160,8|4
176,200,30046,1,0
200,124,30232,2,0,B|200:76|256:68|312:76|312:124,1,160,8|0
336,200,30787,1,0
408,232,30972,6,0,B|424:188|396:148|396:148|396:68,2,160,8|4|8
340,276,31898,1,0
412,308,32084,2,0,B|460:304|480:256,2,80,0|0|8
408,232,32639,1,0
332,204,32824,2,0,B|292:204|292:204|280:188|256:196|228:188|220:204|220:204|156:204,1,160,4|8
127,143,33380,1,0
180,84,33565,2,0,B|221:84|221:84|229:68|257:76|281:68|293:84|293:84|333:84,1,160,4|8
384,140,34121,1,0
456,172,34306,6,0,B|470:146|470:114|450:82|424:68|424:68|414:30,2,160,4|8|0
388,216,35232,1,0
348,288,35417,2,0,B|252:288,1,80,8|0
200,244,35787,2,0,B|96:244,2,80,4|0|8
256,187,36343,1,0
256,187,36713,1,0
216,116,36898,2,0,B|256:96|296:116,1,80,8|0
356,64,37269,6,0,B|388:88|448:72,1,80,4|0
484,128,37639,2,0,B|452:208,1,80,8|0
424,276,38009,1,0
396,352,38194,1,8
328,308,38380,2,0,B|298:382,1,80,0|0
220,360,38750,5,4
204,280,38935,1,0
124,276,39121,2,0,B|92:252|56:260|56:260|48:160,1,160,8|0
127,184,39676,2,0,B|165:186|214:188,2,80,0|8|0
48,172,40232,2,0,B|72:112|72:112|96:72|144:52,1,160,4|8
200,112,40787,1,0
256,56,40972,1,0
312,112,41158,1,0
368,52,41343,2,0,B|416:72|440:112|440:112|464:172,1,160,8|4
408,228,41898,5,0
408,307,42084,2,0,B|320:307,1,80,8|0
256,340,42454,1,0
256,264,42639,1,0
184,307,42824,2,0,B|104:307,1,80,8|0
80,232,43195,2,0,B|176:232|176:232|184:200|216:184,1,160,4|8
256,116,43750,1,0
296,184,43935,2,0,B|328:200|336:232|336:232|432:232,1,160,0|8
484,172,44491,1,0
408,144,44676,6,0,B|424:104|472:92|472:92|500:16,1,160,4|8
416,24,45232,1,0
360,84,45417,1,0
300,32,45602,1,0
256,100,45787,1,8
212,32,45972,1,0
152,84,46158,1,4
96,24,46343,1,0
14,21,46528,2,0,B|40:92|40:92|88:104|104:144,1,160,8|0
28,172,47084,1,0
52,248,47269,2,0,B|68:344,1,80,8|0
144,344,47639,6,0,B|128:252,1,80,4|0
196,220,48009,1,8
216,296,48195,1,0
276,244,48380,1,0
256,168,48565,1,0
208,104,48750,2,0,B|244:28,1,80,8|0
316,56,49121,2,0,B|408:76|480:20,1,160,4|8
492,104,49676,1,0
420,152,49861,2,0,B|444:192|492:192|492:192|488:280,1,160,0|8
400,232,50417,1,0
368,304,50602,6,0,B|320:280|320:228|320:228|284:160,1,160,4|8
256,96,51158,1,0
212,28,51343,2,0,B|176:64|176:104|176:104|100:132,1,160,0|8
104,48,51898,1,0
36,92,52084,2,0,B|24:136|24:168|64:212|120:208,1,160,4|8
184,180,52639,1,0
256,144,52824,2,0,B|272:188|256:216|256:216|336:268,1,160,0|8
344,184,53380,1,0
404,132,53565,6,0,B|436:168|416:220,1,80,4|0
460,276,53935,1,8
388,312,54121,1,0
332,368,54306,2,0,B|300:328|312:288|312:288|232:244,1,160,0|8
184,304,54861,1,0
120,348,55046,2,0,B|40:296,1,80,4|0
24,232,55417,2,0,B|68:216|108:248|108:248|160:192,2,160,8|0|8
20,152,56343,1,0
20,72,56528,6,0,B|64:72|88:112,1,80,4|0
112,32,56898,2,0,B|148:64|156:92|156:92|220:152,1,160,8|0
212,232,57454,1,0
256,296,57639,1,8
300,232,57824,1,0
293,150,58009,2,0,B|356:92|356:92|364:64|400:32,1,160,4|8
425,109,58565,2,0,B|448:72|492:72,2,80,0|0|0
496,148,59121,2,0,B|472:188|420:188,1,80,8|0
380,252,59491,1,4
256,192,59861,12,0,61713
64,176,67639,6,0,B|140:216,1,80
152,136,68009,2,0,B|224:172,1,80,8|0
256,248,68380,1,4
256,328,68565,1,0
180,300,68750,2,0,B|92:300|92:300|80:332|40:348,1,160,8|0
20,272,69306,1,0
16,192,69491,2,0,B|60:192|88:232,1,80,8|0
164,227,69861,2,0,B|208:212|216:172,1,80,4|0
140,152,70232,2,0,B|160:108|196:96,1,80,8|0
256,48,70602,5,0
256,48,70787,1,0
317,100,70972,2,0,B|352:112|372:156,1,80,8|0
296,172,71343,2,0,B|304:212|348:227,1,80,4|0
427,227,71713,2,0,B|452:192|496:192,1,80,8|0
492,272,72084,2,0,B|464:304|416:304,1,80,0|0
352,260,72454,1,8
298,319,72639,1,0
214,318,72824,6,0,B|160:260,2,80,4|0|8
255,249,73380,1,0
197,193,73565,2,0,B|149:150|149:150|110:147|83:117|78:88,1,160,0|8
155,69,74121,1,0
79,93,74306,2,0,B|52:140|52:140|60:196|60:196|32:240,1,160,4|8
104,272,74861,1,0
76,348,75046,2,0,B|128:360|160:328|160:328|232:288,1,160,0|8
256,224,75602,1,0
290,293,75787,6,0,B|352:328|352:328|384:360|436:348,1,160,4|8
408,272,76343,1,0
478,237,76528,2,0,B|452:196|452:196|460:140|460:140|432:93,1,160,0|8
356,68,77084,1,0
312,136,77269,2,0,B|312:184|256:192|200:184|200:136,1,160,4|8
156,68,77824,1,0
76,68,78009,2,0,B|80:112|104:136|128:144|128:144|132:184|156:208,1,160,0|8
212,252,78565,1,0
256,320,78750,5,4
300,252,78935,1,0
361,201,79121,2,0,B|380:184|384:144|384:144|408:136|432:112|436:68,1,160,8|0
468,224,79861,2,0,B|444:260|452:304,1,80,8|0
392,356,80232,2,0,B|364:308|376:260|376:260|360:196,1,160,4|8
300,148,80787,1,0
256,216,80972,1,0
212,148,81158,1,0
150,201,81343,6,0,B|136:260|136:260|148:308|120:356,2,160,8|4|8
76,168,82269,1,0
48,244,82454,2,0,B|72:288|40:328,2,80,0|0|8
0,180,83009,1,0
28,104,83195,2,0,B|72:76|112:96|112:96|200:56,1,160,4|8
256,76,83750,1,0
334,66,83935,2,0,B|400:96|400:96|440:76|484:104,1,160,0|8
436,168,84491,1,0
356,184,84676,6,0,B|368:232|420:248|420:248|436:328,1,160,4|8
372,364,85232,1,0
328,296,85417,2,0,B|292:328|292:376,1,80,0|0
219,365,85787,2,0,B|220:328|184:296,1,80,8|0
132,360,86158,2,0,B|100:336|96:296|108:264|108:264|56:216,1,160,4|8
140,196,86713,1,0
68,156,86898,2,0,B|108:120|108:120|96:88|100:48|132:24,1,160,0|8
184,88,87454,1,0
256,124,87639,5,4
328,88,87824,1,0
392,136,88009,2,0,B|364:168|320:164|320:164|304:200|244:204,2,160,8|0|8
432,204,88935,1,0
364,244,89121,1,4
292,284,89306,2,0,B|208:332,2,80,0|8|0
340,348,89861,2,0,B|368:316|412:320|412:320|428:284|488:280,1,160,0|8
432,204,90417,1,0
484,144,90602,6,0,B|456:120|420:120|392:136|392:136|368:76,1,160,4|8
296,112,91158,1,0
215,112,91343,1,0
135,112,91528,1,0
176,180,91713,1,8
255,180,91898,1,0
212,248,92083,5,4
276,296,92269,1,0
352,276,92454,1,8
356,356,92639,1,0
280,376,92824,2,0,B|184:376,1,80,0|0
124,356,93195,2,0,B|28:356,1,80,8|0
56,272,93565,6,0,B|144:272,1,80,4|0
132,192,93935,2,0,B|228:192,1,80,8|0
264,128,94306,2,0,B|300:156|296:204,1,80,0|0
248,260,94676,2,0,B|276:284|320:280|340:264|340:264|384:332,2,160,8|4|8
297,197,95602,1,0
348,136,95787,2,0,B|380:164|380:196|380:196|432:272,1,160,0|8
500,228,96343,1,0
504,308,96528,6,0,B|484:348|432:348,1,80,4|0
368,308,96898,2,0,B|352:352|372:392,2,80,8|0|0
296,276,97454,1,0
216,276,97639,1,8
256,208,97824,1,0
192,160,98009,2,0,B|196:124|256:108|316:124|320:160,1,160,4|8
396,180,98565,1,0
396,100,98750,2,0,B|360:56|312:44,1,80,0|0
256,32,99121,1,8
256,32,99306,1,0
180,52,99491,6,0,B|156:56|128:80|112:112|112:112|16:92,1,160,4|8
40,176,100047,1,0
116,204,100232,2,0,B|172:280|136:360,1,160,0|8
216,344,100787,1,0
256,276,100972,1,4
295,344,101158,1,0
373,354,101343,2,0,B|340:280|396:204,1,160,8|0
452,147,101898,1,0
432,68,102084,2,0,B|388:84|372:128|372:128|288:136,1,160,8|4
256,192,102824,12,0,105047
172,80,105417,6,0,B|172:152|172:152|140:164|116:184|112:216,1,160,4|8
36,188,105972,1,0
76,120,106158,2,0,B|96:84|84:36,2,80,0|0|8
36,188,106713,1,0
84,252,106898,2,0,B|64:300|64:300|20:324|20:324|-4:376,2,160,4|8|0
152,208,107824,1,0
216,256,108009,1,8
296,256,108195,1,0
360,208,108380,5,4
428,252,108565,1,0
428,252,108750,2,0,B|448:300|448:300|492:324|492:324|516:376,2,160,8|0|8
360,208,109676,1,0
376,128,109861,2,0,B|420:144|476:124|488:88|488:40,1,160,4|8
408,52,110417,1,0
328,60,110602,2,0,B|288:88|292:136|292:136|220:156,1,160,0|8
216,76,111158,1,0
152,124,111343,6,0,B|132:168|164:208|164:208|140:296,1,160,4|8
100,340,111898,1,0
176,348,112084,2,0,B|208:340|224:312|228:288|228:268|228:268|244:208,1,160,0|8
316,176,112639,1,0
352,104,112824,2,0,B|380:116|396:156|396:176|396:176|468:224,1,160,4|8
424,288,113380,1,0
456,216,113565,2,0,B|504:244|516:292|500:332|456:360,1,160,0|8
312,352,114306,1,4
