osu file format v6

[General]
AudioFilename: Groove Coverage - God is a Girl(1).mp3
AudioLeadIn: 0
PreviewTime: 74208
Countdown: 0
SampleSet: Soft
StackLeniency: 0.7
Mode: 0
LetterboxInBreaks: 0

[Editor]
DistanceSpacing: 1.60000002384186
BeatDivisor: 4
GridSize: 8

[Metadata]
Title:God is a Girl
Artist:Groove Coverage
Creator:Rena-chan
Version:SteRRuM's Hard
Source:
Tags:

[Difficulty]
HPDrainRate:7
CircleSize:5
OverallDifficulty:7
SliderMultiplier:2.1
SliderTickRate:1

[Events]
//Background and Video events
0,0,"sortofrelatedbackground.jpg"
//Break Periods
2,60887,66336
2,101450,113026
2,150464,155914
//Storyboard Layer 0 (Background)
//Storyboard Layer 1 (Fail)
//Storyboard Layer 2 (Pass)
//Storyboard Layer 3 (Foreground)
//Storyboard Sound Samples
//Background Colour Transformations
3,100,163,162,255

[TimingPoints]
3222,422.535211267606,4,2,1,100,1,0
31109,-200,4,2,1,100,0,0
45370,-200,4,1,0,60,0,0
59419,-100,4,1,0,50,0,0
80969,-200,4,1,0,60,0,0
87729,-100,4,1,0,80,0,0
113926,-200,4,1,0,50,0,0
128081,-200,4,2,1,80,0,0
156602,-100,4,1,0,60,0,0
170546,-100,4,1,0,100,0,0
170863,-100,4,1,0,60,0,0
185757,-100,4,1,0,80,0,1
192412,-100,4,1,0,100,0,1
199278,-200,4,1,0,70,0,0
206250,-100,4,2,1,30,0,0

[Colours]
Combo1 : 128,0,128
Combo2 : 128,0,0
Combo3 : 128,0,128
Combo4 : 128,0,0

[HitObjects]
160,80,31109,1,0
136,112,31321,1,0
112,144,31532,2,0,B|88:200|136:264,1,105,0|2
224,168,32588,5,0
264,184,32800,1,0
296,208,33011,1,0
328,240,33222,2,0,B|360:320|312:376,1,105,0|2
256,296,34067,1,0
192,240,34490,5,0
168,200,34701,1,0
160,160,34912,1,0
160,120,35123,2,0,B|232:64|288:112,1,105,0|2
328,192,36180,5,0
320,232,36391,1,0
288,264,36602,1,0
248,264,36814,2,0,B|208:216|144:272,1,105,0|2
96,152,37870,5,0
128,128,38081,1,0
168,144,38292,2,0,B|232:120|288:160,1,105,0|2
368,224,39349,6,0,B|368:280,1,52.5
328,264,39771,2,0,B|328:200,2,52.5
288,272,40405,2,0,B|160:272,1,105,2|0
160,192,41250,5,0
176,152,41461,1,0
216,136,41673,1,0
248,168,41884,2,0,B|232:232|296:248,1,105,0|2
328,128,42940,5,0
296,96,43152,1,0
256,80,43363,1,0
232,112,43574,2,0,B|240:168|320:176,1,105,0|2
208,248,44630,6,0,B|136:248,1,52.5
152,208,45053,2,0,B|96:208,1,52.5
96,168,45476,1,0
216,128,46109,5,0
256,144,46321,1,0
272,184,46532,1,0
256,224,46743,1,8
200,288,47166,2,0,B|128:336|216:368,1,105,0|0
288,328,48011,5,0
320,304,48222,1,0
336,264,48433,1,8
328,224,48645,2,0,B|296:160|240:232,1,105
256,96,49701,6,0,B|320:40,1,52.5
328,88,50123,2,0,B|264:144,1,52.5,8|0
232,184,50757,2,0,B|176:176|168:80,1,105
128,112,51391,5,0
104,144,51602,1,0
88,184,51814,1,8
120,264,52236,1,0
240,304,52870,5,0
256,264,53081,1,0
248,224,53292,1,0
264,184,53504,1,8
344,152,53926,1,0
392,312,54771,5,0
360,280,54983,1,0
320,280,55194,1,8
280,296,55405,2,0,B|152:296,1,105
256,200,56461,6,0,B|216:160,1,52.5
256,152,56884,1,8
296,160,57095,1,0
368,208,57518,2,0,B|352:288|288:312,1,105
216,216,58574,5,8
192,216,58680,1,0
168,216,58785,1,0
144,216,58891,2,0,B|104:216,1,26.25
96,120,59419,5,2
168,152,59630,1,0
248,120,59842,1,2
328,152,60053,1,0
408,128,60264,1,2
488,152,60476,1,0
448,224,60687,1,6
168,88,67236,5,0
336,88,67447,1,4
256,192,69138,5,4
176,296,70616,5,0
344,296,70828,1,4
256,96,71673,5,4
256,224,72307,5,0
256,56,72518,1,4
456,328,72940,5,4
120,344,73363,1,4
352,96,73785,1,4
16,120,74208,5,4
184,120,74630,1,8
280,256,75053,1,0
112,256,75476,5,8
176,208,75687,1,0
248,176,75898,1,0
376,288,76321,1,8
416,128,76743,1,0
256,80,77166,6,0,B|224:48|144:40,2,105,8|0|0
136,200,78011,1,8
304,200,78433,1,0
256,360,78856,5,8
256,272,79067,1,0
256,184,79278,2,0,B|184:144|184:144|232:120|232:120|152:72,1,210,0|8
88,120,79912,1,0
88,200,80123,1,0
136,264,80335,1,0
192,200,80546,2,0,B|328:200,1,105,8|0
384,200,80969,6,0,B|384:264,1,52.5,2|0
384,168,81391,2,0,B|440:168,1,52.5,2|0
352,168,81814,2,0,B|352:112,1,52.5,2|0
352,200,82236,6,0,B|296:200,2,52.5,2|0|2
184,200,83081,2,0,B|128:200,1,52.5,2|0
184,136,83504,2,0,B|120:136,1,52.5,2|0
184,72,83926,6,0,B|248:72,2,52.5,2|0|2
336,136,84771,1,2
184,200,85194,1,2
352,224,85616,5,8
304,296,85828,1,0
224,328,86039,1,8
256,160,86461,5,8
184,120,86673,1,0
256,80,86884,1,8
328,120,87095,1,0
328,200,87307,1,8
256,240,87518,1,0
184,200,87729,5,4
96,48,88152,1,8
16,192,88574,1,0
144,304,88997,1,8
224,304,89208,1,0
304,304,89419,1,0
224,152,89842,1,8
392,152,90264,1,0
256,256,90687,5,8
176,288,90898,1,0
120,224,91109,1,0
256,128,91532,1,8
360,256,91954,1,0
200,200,92377,1,8
160,128,92588,1,0
200,56,92800,1,0
344,136,93222,6,0,B|448:208,1,105,2|0
352,168,93645,2,0,B|280:256,1,105,2|0
240,176,94067,2,0,B|328:256,1,105,2|0
240,208,94490,6,0,B|136:248,1,105,2|0
152,160,94912,1,2
296,72,95335,1,2
208,216,95757,1,2
240,288,95969,1,0
312,328,96180,1,2
368,168,96602,2,2,B|256:56|160:104,1,210
96,240,97447,5,2
144,312,97659,1,0
216,264,97870,1,2
360,176,98292,1,2
208,104,98715,1,2
280,256,99138,1,2
264,336,99349,1,0
192,288,99560,1,2
112,136,99983,5,8
192,144,100194,1,0
272,160,100405,1,8
352,184,100616,1,0
432,216,100828,1,8
352,248,101039,1,0
272,224,101250,1,8
256,192,113926,5,0
336,160,114138,1,0
360,80,114349,1,0
200,40,114771,1,4
72,256,115405,5,0
144,296,115616,1,0
224,296,115828,1,0
192,216,116039,2,0,B|120:224|120:152,1,105,8|0
280,216,116884,1,0
424,120,117307,5,0
344,96,117518,1,0
264,120,117729,1,8
344,144,117940,1,0
344,312,118363,1,0
232,248,118680,5,0
232,248,118785,2,0,B|176:216,1,52.5
304,104,119419,1,8
296,272,119842,2,0,B|352:240|256:216|352:144,1,105
160,120,120687,5,0
120,192,120898,1,0
120,272,121109,1,8
272,192,121532,1,0
264,360,122166,5,0
328,304,122378,1,0
376,240,122589,1,0
288,240,122800,2,0,B|360:136,1,105,8|0
104,96,123856,5,0
48,160,124067,1,0
104,224,124278,1,0
160,160,124490,1,8
160,160,124701,2,0,B|280:160,1,105
136,264,125546,1,8
208,304,125757,2,2,B|288:328|352:280,2,105
464,88,127447,5,8
384,48,127659,1,0
360,128,127870,1,8
288,88,128081,1,2
240,248,128504,1,0
192,176,128715,1,2
208,96,128926,1,0
136,136,129138,2,0,B|64:160|96:248,1,105,2|0
87,217,129771,1,0
296,272,130828,5,2
328,192,131039,1,0
248,152,131250,1,0
184,208,131461,1,0
136,48,131884,1,0
216,56,132095,5,2
296,88,132307,1,0
344,152,132518,1,0
344,320,132940,1,2
272,272,133152,1,0
200,184,134208,5,2
256,128,134419,1,0
336,128,134630,1,2
336,208,134842,1,0
224,336,135264,1,0
120,200,135687,2,0,B|200:200,1,52.5,0|2
296,88,136321,2,0,B|376:88,1,52.5,2|0
88,304,137377,6,0,B|160:304,1,52.5,0|2
120,224,137800,1,0
152,144,138011,1,0
184,64,138222,2,0,B|232:8|296:80,1,105,2|2
296,224,139067,2,0,B|296:160,1,52.5,0|2
128,192,139701,1,2
264,288,140123,1,2
368,88,142659,5,0
328,160,142870,1,0
264,104,143081,2,0,B|200:120|176:200,1,105,0|2
232,272,144138,6,0,B|296:280,1,52.5,0|2
256,200,144560,1,0
312,136,144771,1,2
472,72,145194,1,0
136,104,146039,5,0
112,184,146250,1,0
48,240,146461,1,0
104,304,146673,2,0,B|168:240|232:312,1,105,2|2
360,88,147729,6,0,B|312:160,1,52.5
256,88,148152,1,0
176,120,148363,2,0,B|120:80|72:152,1,105,2|2
304,256,149419,5,2
280,176,149630,1,0
216,224,149842,1,0
168,64,150264,1,2
256,88,156814,5,0
256,88,157025,1,4
256,296,158715,5,4
256,160,160194,5,0
256,160,160405,1,4
256,224,162095,5,4
168,192,163574,5,0
336,192,163785,1,4
256,192,164630,5,4
256,192,165264,5,0
256,192,165476,1,4
256,128,166321,5,4
256,256,166954,5,0
256,256,167166,1,4
256,192,167588,5,4
256,192,168011,1,4
192,192,168433,1,4
320,192,168856,5,4
320,128,169067,1,0
320,64,169278,1,4
256,64,169490,1,0
256,128,169701,1,4
256,136,169807,1,0
256,144,169912,1,0
256,152,170018,1,0
256,160,170123,1,0
256,168,170229,1,0
256,176,170335,1,0
256,184,170440,1,0
256,192,170546,1,4
144,248,170969,5,8
208,304,171180,1,0
288,312,171391,1,8
368,304,171602,1,0
440,256,171814,1,8
440,168,172025,1,0
440,80,172236,6,0,B|312:16|200:104,1,210,8|0
312,232,173081,1,8
168,144,173504,5,0
168,224,173715,1,0
168,304,173926,1,8
336,304,174349,1,0
168,304,174771,1,8
56,176,175194,5,0
112,120,175405,1,0
192,96,175616,1,8
256,248,176039,1,0
320,96,176461,1,8
384,248,176884,2,0,B|336:184|288:264,2,105,0|0|8
432,88,177729,5,8
432,168,177940,1,0
432,248,178152,1,8
384,320,178363,1,0
296,320,178574,1,8
248,248,178785,1,0
248,248,178997,6,0,B|160:232|168:48,1,210,8|0
328,128,179842,2,0,B|456:168|456:288,1,210,8|0
376,240,180476,1,0
296,208,180687,1,8
136,160,181109,2,0,B|56:216|160:376,1,210,0|8
304,296,181954,2,0,B|384:264|368:192,2,105,0|0|8
256,136,182800,1,0
256,136,183222,1,8
200,296,183645,2,0,B|256:312|320:296,2,105,0|0|8
256,192,184278,12,4,185757
104,64,186180,5,4
272,64,186602,1,4
160,192,187025,1,2
160,272,187236,1,0
232,232,187447,2,2,B|344:328|456:200,1,210,2|0
328,88,188292,1,2
168,144,188715,6,0,B|168:280,1,105,2|0
232,192,189138,1,2
392,152,189560,1,0
232,112,189983,1,2
392,152,190405,5,2
400,232,190616,1,0
336,280,190828,1,2
240,136,191250,5,2
264,216,191461,1,0
248,296,191673,1,2
168,328,191884,1,0
136,248,192095,1,2
184,176,192307,1,0
160,96,192518,6,4,B|216:-8|312:184,1,210
184,280,193363,1,4
344,240,193785,1,2
392,168,193997,1,0
384,80,194208,1,2
224,136,194630,1,4
288,288,195053,1,4
136,208,195476,5,2
88,136,195687,1,0
168,104,195898,1,2
272,224,196321,1,4
136,320,196743,1,4
296,280,197166,5,2
344,208,197377,1,0
344,120,197588,1,2
192,48,198011,5,8
192,128,198222,1,0
192,208,198433,1,8
192,288,198645,1,0
272,288,198856,1,8
344,320,199067,1,0
424,288,199278,5,2
424,120,199701,1,0
272,192,200123,1,2
112,192,200546,5,0
192,192,200757,1,0
272,192,200969,1,2
272,360,201391,2,0,B|368:296|368:256,1,105,0|2
272,144,202236,6,0,B|200:144,1,52.5
136,144,202659,1,2
208,296,203081,1,0
360,224,203504,1,2
280,72,203926,1,0
200,32,204138,1,0
120,56,204349,1,2
112,224,204771,5,0
184,256,204983,1,0
176,168,205194,2,0,B|264:168,1,52.5,2|0
232,80,205616,2,0,B|160:80,2,52.5,0|0|2
256,192,206461,12,4,212800
