osu file format v6

[General]
AudioFilename: Groove Coverage - God is a Girl(1).mp3
AudioLeadIn: 0
PreviewTime: 74208
Countdown: 0
SampleSet: Soft
StackLeniency: 0.7
Mode: 0
LetterboxInBreaks: 0

[Editor]
Bookmarks: 29419,113923,170440
DistanceSpacing: 0.5
BeatDivisor: 2
GridSize: 8

[Metadata]
Title:God is a Girl
Artist:Groove Coverage
Creator:Rena-chan
Version:GolGate's Easy
Source:
Tags:

[Difficulty]
HPDrainRate:3
CircleSize:4
OverallDifficulty:4
SliderMultiplier:1.2
SliderTickRate:1

[Events]
//Background and Video events
0,0,"sortofrelatedbackground.jpg"
//Break Periods
2,59196,66126
2,101236,113449
//Storyboard Layer 0 (Background)
//Storyboard Layer 1 (Fail)
//Storyboard Layer 2 (Pass)
//Storyboard Layer 3 (Foreground)
//Storyboard Sound Samples
//Background Colour Transformations
3,100,163,162,255

[TimingPoints]
3222,422.535211267606,4,2,0,100,1,0
45262,-100,4,1,0,100,0,0
127025,-100,4,2,0,100,0,0

[Colours]
Combo1 : 128,128,255
Combo2 : 64,0,128
Combo3 : 0,0,160

[HitObjects]
440,192,31954,1,0
288,296,33222,1,0
224,296,33645,1,0
128,224,34490,5,0
128,160,34912,1,0
200,104,35546,1,0
256,32,36180,1,0
296,72,36602,1,0
240,136,37236,1,0
176,200,37870,6,0,C|176:272|224:328,2,120
256,112,39560,1,0
256,168,39983,1,0
256,224,40405,1,0
352,160,41250,2,0,C|352:88|304:32,2,120,0|0|0
376,280,42940,2,0,C|256:272|136:280,1,240
256,256,44630,5,8
256,192,45051,1,0
256,136,45476,1,8
208,216,46107,1,8
120,200,46742,2,0,C|152:152|216:120,1,120,0|8
256,224,48009,5,0
296,272,48431,2,0,C|360:272,1,60
416,272,49065,1,8
464,192,49700,2,0,C|384:80|224:72,1,300,0|8
136,72,51388,5,0
72,72,51813,1,0
96,120,52235,1,8
192,192,53080,2,0,C|320:192,2,120,8|0|8
256,296,54770,1,0
312,296,55192,1,8
368,296,55615,2,0,C|432:184|312:168,1,240,0|8
256,192,56882,12,4,58994
256,160,67446,6,4,C|392:80|328:200|376:248|248:320,2,480
144,216,71672,5,4
264,232,72517,5,4
176,312,73362,5,0
128,272,73784,1,0
80,240,74207,1,2
80,176,74628,5,0
80,120,75052,2,2,C|168:72|256:120|312:120,1,240
352,120,76320,5,0
352,176,76740,2,2,C|264:224|176:176|120:176,1,240
136,232,78008,5,0
136,288,78431,1,2
192,288,78853,2,2,C|280:336|368:288|424:288,1,240,0|2
464,288,80121,2,0,C|464:168,2,120,2|0|2
416,328,81388,5,0
352,320,81811,2,2,C|336:248|368:160|352:72,1,240
296,80,83078,5,0
232,72,83501,2,2,C|248:144|216:232|232:320,1,240
288,296,84769,5,0
224,288,85191,2,2,C|208:216|240:128|224:40,1,240
256,192,86459,12,8,87726
256,88,88571,5,8
312,104,88994,1,0
368,128,89416,2,0,C|256:168|136:128,1,240,8|8
104,176,90684,5,0
64,216,91107,2,8,C|64:304|104:352|192:352,1,240
192,288,92374,1,0
240,256,92797,1,8
288,224,93219,2,0,C|336:184|272:144,2,120,0|8|0
240,184,94487,5,8
240,120,94909,1,0
176,120,95332,2,8,C|176:288|400:352,1,360
360,280,97022,6,0,C|424:264|440:200,1,120,0|8
440,152,97867,6,0,C|424:88|360:72,1,120,0|8
312,72,98712,6,0,C|248:88|232:152,1,120,0|8
232,200,99557,6,0,C|248:264|312:280,1,120,0|8
336,224,100402,5,0
336,192,100614,5,0
336,160,100825,5,0
336,128,101036,5,0
376,304,114769,5,4
272,304,115402,2,0,C|208:304,3,60
152,304,116459,1,0
72,216,117304,6,0,C|72:80|72:80|240:80,2,300
128,216,119839,1,0
248,216,120684,5,0
288,176,121107,1,0
248,128,121529,1,0
320,72,122163,2,0,C|384:72,3,60
440,72,123219,1,0
440,192,124064,6,0,C|440:328|440:328|272:328,2,300
376,192,126600,1,4
256,192,127447,12,8,129771
128,192,131459,5,0
160,104,132092,2,0,C|208:176|208:232|264:176|304:240,1,300,0|8
376,104,134205,5,0
296,64,134839,1,0
296,152,135262,1,8
336,200,135684,2,0,C|440:240|440:240|320:320,1,240
208,296,137374,5,0
144,296,137797,2,0,C|64:208|64:208|192:208,1,240
256,192,139064,12,0,141811
128,144,143501,5,0
200,88,144135,2,0,C|280:152|368:88|456:88,1,300
400,160,145825,1,0
400,248,146459,6,0,C|368:296|296:312,1,120
320,216,147515,1,0
376,144,148149,2,0,C|248:144,1,120
320,80,149205,1,0
232,80,149839,6,0,C|208:136|136:168,1,120,0|0
136,72,150895,1,0
64,120,151529,2,0,C|48:176|48:176|64:248,1,120
136,176,152585,1,0
232,192,153219,6,0,C|200:240|240:304,1,120
168,352,154276,1,0
224,280,154909,2,0,C|256:256|312:256|256:192,1,180
256,192,157022,5,4
80,24,158712,5,4
232,168,160191,5,4
232,168,160402,1,4
480,192,162092,5,4
272,216,163571,5,4
272,216,163782,1,4
256,336,164628,5,4
192,272,165262,5,4
192,272,165473,1,4
96,192,166318,5,4
160,136,166952,6,4,C|224:136,1,60
256,184,167585,5,4
256,184,168008,5,4
256,184,168431,5,4
256,184,168853,5,4
256,192,169276,12,8,170543
