osu file format v6

[General]
AudioFilename: Groove Coverage - God is a Girl(1).mp3
AudioLeadIn: 0
PreviewTime: 74208
Countdown: 0
SampleSet: Soft
StackLeniency: 0.7
Mode: 0
LetterboxInBreaks: 0

[Editor]
Bookmarks: 170440
DistanceSpacing: 0.800000011920929
BeatDivisor: 4
GridSize: 8

[Metadata]
Title:God is a Girl
Artist:Groove Coverage
Creator:Rena-chan
Version:God is Rena
Source:
Tags:

[Difficulty]
HPDrainRate:7
CircleSize:5
OverallDifficulty:7
SliderMultiplier:2
SliderTickRate:1

[Events]
//Background and Video events
0,0,"sortofrelatedbackground.jpg"
//Break Periods
2,58351,71618
2,101450,113027
//Storyboard Layer 0 (Background)
//Storyboard Layer 1 (Fail)
//Storyboard Layer 2 (Pass)
//Storyboard Layer 3 (Foreground)
Sprite,Foreground,Centre,"Caution1.png",701,240 M,0,87307,89093,684,240,264,241 F,0,88820,89093,1,0
Sprite,Foreground,Centre,"Caution1.png",480,241 M,0,87307,89093,480,241,46,241 F,0,88820,89093,1,0
Sprite,Foreground,Centre,"Caution1.png",255,241 M,0,87307,88548,255,241,-25,241 M,0,88548,89093,-25,241,-164,240 F,0,88820,89093,1,0
Sprite,Foreground,Centre,"Caution1.png",7,241 M,0,87307,88002,7,241,-96,241
Sprite,Foreground,Centre,"Caution2.png",292,151 S,0,87457,,1.144 M,0,87307,88820,292,151,638,153 M,0,88820,89093,638,153,708,154 F,0,88820,89093,1,0
Sprite,Foreground,Centre,"Caution2.png",320,240 S,0,87457,,1.144 M,0,87307,89093,0,151,415,154 F,0,88820,89093,1,0
Sprite,Foreground,Centre,"Caution2.png",320,240 S,0,87457,,1.144 M,0,88093,,488,333 M,0,87307,89093,323,332,747,332 M,0,88093,89093,488,333,747,332 F,0,88820,89093,0.9879999,0
Sprite,Foreground,Centre,"Caution2.png",320,240 S,0,87457,,1.136 M,0,87307,88366,612,332,847,335
Sprite,Foreground,Centre,"Caution2.png",320,240 S,0,87457,,1.136 M,0,87307,87911,33,331,150,332 M,0,87911,88200,150,332,226,333 M,0,88200,89093,226,333,457,331 F,0,88820,89093,1,0
Sprite,Foreground,Centre,"Caution2.png",320,240 S,0,87457,,1.144 M,0,87820,,-198,152 M,0,87820,88796,-198,152,47,153 M,0,88796,89093,47,153,122,155 F,0,88820,89093,1,0
Sprite,Foreground,Centre,"Caution1.png",320,240 M,0,88093,88730,735,241,582,243 M,0,88730,89093,582,243,498,244 F,0,88820,89093,1,0
Sprite,Foreground,Centre,"Caution2.png",320,240 S,0,87457,,1.136 M,0,87307,88366,597,151,814,152
Sprite,Foreground,Centre,"Caution2.png",320,240 M,0,87518,87820,-181,331,-159,331 S,0,87639,87911,1.128,1.144 M,0,87820,87911,-159,331,-137,333 M,0,87911,88002,-137,333,-115,333 M,0,88002,88093,-115,333,-87,332 M,0,88093,88200,-87,332,-59,331 M,0,88200,88561,-59,331,33,332 M,0,88561,89093,33,332,170,331 F,0,88820,89093,1,0
//Storyboard Sound Samples
//Background Colour Transformations
3,100,163,162,255

[TimingPoints]
3222,422.535211267606,4,2,0,100,1,0
28574,-200,4,2,0,100,0,0
72518,-100,4,2,0,100,0,1
86250,-100,4,2,0,100,0,0
86461,-50,4,2,0,100,0,1
101250,-100,4,2,0,100,0,0
125445,-200,4,2,0,100,0,0
140969,-100,4,2,0,0,0,0
142659,-100,4,2,0,100,0,0

[Colours]
Combo1 : 128,0,128
Combo2 : 128,0,0
Combo3 : 128,0,128
Combo4 : 128,0,0

[HitObjects]
256,192,28574,12,0,30264
80,152,31109,5,0
152,152,31320,1,0
120,88,31532,1,0
200,216,31954,1,4
480,192,32588,5,0
408,192,32799,1,0
408,192,33010,1,0
336,192,33222,1,0
184,192,33644,2,0,B|128:176|80:192,1,100,2|0
376,192,34489,5,0
400,120,34701,1,0
376,48,34912,1,0
304,64,35123,2,0,B|280:72|280:112,1,50,2|0
280,176,35546,1,0
88,296,36180,5,0
128,232,36391,1,0
88,168,36602,1,0
136,112,36813,2,0,B|136:56|208:56,2,100,2|0|0
184,168,37870,5,0
240,216,38081,1,0
312,192,38292,1,0
312,192,38715,1,4
136,48,39349,5,0
80,96,39560,1,0
80,96,39771,1,0
96,168,39982,1,0
96,168,40405,2,0,B|144:152|192:192|176:256,1,100,2|0
384,192,41250,5,0
312,160,41461,1,0
240,192,41672,1,0
168,160,41884,2,0,B|120:144|136:72,2,100,2|0|0
240,192,42940,5,0
240,192,43151,1,0
312,216,43363,1,0
312,216,43574,2,0,B|336:232|360:224|376:200|368:168|352:152|328:152,2,100,2|0|0
312,216,44630,1,0
312,216,44841,1,0
248,256,45053,1,0
248,256,45476,1,4
416,104,45898,5,8
416,104,46109,1,0
352,64,46320,2,0,B|312:56|304:80,2,50,0|0|8
480,144,47166,2,0,B|456:192|392:168,1,100,2|8
112,72,48011,5,0
112,72,48222,1,0
160,128,48433,1,8
160,128,48644,1,2
264,232,49067,1,0
264,232,49278,1,8
440,96,49701,5,0
368,64,49912,1,0
336,136,50123,1,8
336,136,50334,1,2
264,104,50546,2,0,B|224:64|168:64,1,100,0|8
32,120,51391,5,0
32,120,51602,1,0
32,120,51813,1,8
256,320,52236,5,4
400,144,52659,5,8
400,144,52870,1,0
328,120,53081,1,0
328,120,53292,1,0
256,144,53503,1,8
104,144,53926,2,0,B|152:168|104:248,1,100,2|8
256,264,54771,5,0
256,264,54982,1,0
256,184,55194,1,8
256,184,55405,1,2
256,32,55827,1,0
256,32,56039,1,8
472,96,56461,5,0
408,128,56672,1,0
448,192,56884,1,8
384,232,57095,1,2
344,168,57306,1,0
304,104,57518,2,0,B|272:64|208:56|168:88,1,150,0|0
144,72,72518,5,10
144,72,72623,1,0
168,72,72729,5,2
168,72,72834,1,0
192,72,72940,5,10
192,72,73046,1,0
216,72,73151,5,2
216,72,73257,1,0
240,72,73363,5,10
240,72,73468,1,0
264,72,73574,5,2
264,72,73680,1,0
288,72,73785,5,10
288,72,73891,1,0
312,72,73996,5,10
312,72,74102,1,2
336,72,74208,6,8,B|440:72,1,100,4|2
440,224,74630,6,0,B|440:120,1,100,8|2
288,128,75053,2,0,B|392:128,1,100,0|2
384,280,75476,2,0,B|384:176,2,100,10|2|4
232,280,76109,6,0,B|336:280,1,100,0|10
232,120,76532,2,0,B|232:224,1,100,0|2
392,120,76954,2,0,B|288:120,2,100,2|10|2
232,120,77588,6,0,B|128:120,1,100,4|2
232,232,78011,2,0,B|128:232,1,100,8|2
232,344,78433,2,0,B|128:344,1,100,0|2
280,344,78856,6,0,B|384:344,1,100,8|2
280,232,79278,2,0,B|384:232,1,100,4|2
384,80,79701,5,8
384,80,79912,1,2
288,192,80123,5,8
288,192,80334,1,2
184,80,80546,5,10
184,80,80757,1,2
184,232,80968,6,0,B|184:128,1,100,4|2
336,128,81391,2,0,B|336:232,1,100,8|2
184,232,81813,6,0,B|184:128,1,100,0|2
336,128,82236,2,0,B|336:232,3,100,10|2|6|2
392,88,83081,2,0,B|392:192,1,100,8|2
448,48,83503,2,0,B|448:152,1,100,0|2
448,296,83926,6,0,B|448:192,3,100,10|2|6|2
448,196,84771,2,0,B|360:120,1,100,8|2
372,130,85194,2,0,B|264:112,1,100,0|2
273,113,85616,2,0,B|168:112,3,100,10|2|6|2
168,264,86461,5,8
168,264,86672,1,2
320,264,86884,5,8
320,264,87095,1,2
320,112,87307,5,10
320,112,87518,1,10
176,112,87729,6,0,B|136:120|88:168|112:272|160:296,1,200,4|8
139,278,88151,2,0,B|184:304|240:288|288:248|280:184,1,200,0|8
280,192,88574,2,0,B|272:137|288:81|336:57|384:57|424:81|432:97,1,200,0|8
395,72,88996,2,0,B|424:104|448:168|432:224|400:272,3,200,2|10|6|10
408,258,89841,6,0,B|368:288|296:304|224:280|208:264,1,200,0|8
216,272,90264,2,0,B|144:242|104:202|88:122,1,200,0|8
89,127,90687,2,0,B|64:72|72:40|112:24|184:32|216:56,3,200,2|10|6|10
203,48,91532,6,0,B|296:96|400:64,1,200,0|8
397,64,91954,2,0,B|440:48|472:56|488:88|472:144|448:184|408:192,1,200,0|8
424,185,92377,2,0,B|328:224|216:200,2,200,0|8|4
160,88,93222,5,8
160,88,93433,1,2
456,96,93644,5,8
456,96,93856,1,2
256,320,94067,5,10
256,320,94278,1,10
64,88,94490,6,0,B|272:88,1,200,4|8
472,304,94912,6,0,B|256:304,1,200,0|8
424,48,95334,6,0,B|424:256,1,200,0|8
168,88,95757,6,0,B|376:88,3,200,2|10|6|10
368,88,96602,2,0,B|368:296,1,200,0|8
368,288,97025,2,0,B|312:88,1,200,0|8
314,95,97447,2,0,B|432:272,2,200,2|10|6
314,95,98081,6,0,B|104:56,1,200,8|0
400,168,98503,2,0,B|184:128,1,200,8|0
480,240,98926,2,0,B|280:200,3,200,10|2|10|6
283,200,99982,5,8
283,200,100194,1,2
32,32,100405,5,8
32,32,100616,1,2
320,96,100827,5,10
320,96,101039,1,10
320,96,101250,1,4
48,192,113927,5,0
104,136,114138,1,0
160,192,114349,1,0
320,192,114771,2,0,B|256:144|232:192|200:256|192:256|184:248|152:208,1,200,4|8
160,136,115406,5,0
160,136,115617,2,0,B|216:136|216:64,2,100,0|0|8
160,136,116251,1,0
160,136,116462,2,0,B|104:136|104:208|160:312,1,200,2|8
312,312,117307,5,0
384,280,117518,1,0
416,208,117730,1,8
416,128,117940,2,0,B|392:72|344:32|280:32|248:64,1,200,2|0
304,120,118574,1,8
352,184,118786,5,0
368,264,118997,1,0
368,264,119208,1,0
368,264,119420,1,8
304,312,119631,1,0
224,312,119842,2,0,B|152:296|104:256|80:208|72:168,1,200,2|8
208,80,120687,5,0
288,80,120899,1,0
208,80,121110,1,8
208,80,121532,2,0,B|152:112|136:184|144:248|168:288|208:312,1,200,2|8
240,312,122166,5,0
312,272,122377,1,0
368,216,122589,1,0
368,216,122800,1,8
392,136,123011,1,0
400,56,123222,1,2
240,48,123645,1,8
160,48,123856,5,0
160,128,124068,1,0
240,128,124279,1,0
240,208,124490,1,8
320,208,124701,1,2
320,208,125124,1,0
240,208,125335,1,8
160,208,125546,5,0
160,128,125758,1,0
320,128,126180,1,8
320,288,126603,1,2
160,288,127025,1,8
184,200,127447,6,0,B|224:200|248:152,1,50
256,136,127869,1,8
256,136,128081,2,0,B|280:88|336:80,1,100,4|0
376,80,128714,5,8
416,88,128926,1,0
448,112,129138,2,0,B|480:160|456:224,1,100,2|8
448,248,129771,1,2
448,248,130405,1,8
256,192,130828,5,0
216,192,131039,1,0
240,160,131250,1,8
264,128,131462,2,0,B|304:80|368:88,1,100,2|0
392,88,132095,5,8
392,88,132307,1,0
432,96,132518,2,0,B|456:104|464:136,2,50,0|0|8
392,88,133152,2,0,B|328:96|312:160,1,100,2|0
316,145,133785,1,8
216,80,134208,6,0,B|184:80|184:112,1,50
184,152,134630,1,8
184,192,134842,2,4,B|184:248|248:272,1,100,4|0
238,268,135476,1,8
184,192,135898,2,0,B|184:136|144:88,1,100,2|8
128,72,136532,2,0,B|104:56|80:64|64:96|80:136,1,100,2|0
80,160,137165,5,8
88,200,137376,1,0
104,240,137588,1,0
104,240,137799,1,0
128,272,138011,1,8
160,296,138222,2,0,B|192:320|224:320|248:304,2,50,2|0|2
256,192,138856,12,0,140969
256,56,142659,5,0
256,56,142870,1,0
256,136,143082,1,0
256,136,143504,1,4
72,288,144138,5,0
104,216,144349,1,0
168,176,144561,1,0
232,216,144772,1,0
232,216,145194,1,2
464,192,146039,5,0
384,176,146251,1,0
304,192,146461,1,0
304,192,146673,1,2
224,176,146884,1,0
144,192,147096,2,0,B|96:176|88:112|136:64|208:64,1,200
280,64,147730,5,0
280,64,147941,1,0
280,144,148152,2,0,B|280:248,2,100,0|2|0
280,64,148786,2,0,B|280:120|216:144|168:144|160:224,1,200,0|0
160,296,149420,5,0
160,296,149631,1,0
160,296,149842,1,0
160,296,150265,1,4
256,72,150899,6,0,B|192:64|184:136,2,100
336,80,151532,2,0,B|392:96|368:168,1,100
344,232,151954,2,0,B|328:288|240:264|224:184|288:144,1,200,2|0
128,192,152800,5,0
200,160,153011,1,0
272,192,153223,1,0
344,224,153433,1,2
416,192,153645,1,0
416,192,153856,1,0
216,328,154490,5,0
152,280,154701,1,0
152,200,154913,1,0
160,120,155123,2,0,B|160:64|232:64|272:120|272:192,2,200,2|0|0
160,120,156180,6,0,B|160:176|208:208,1,100
280,240,156603,1,0
280,120,156920,5,0
280,120,157025,1,4
64,232,157659,5,0
136,208,157870,1,0
208,232,158082,1,0
280,208,158293,1,0
424,136,158715,5,4
144,88,160194,5,0
144,88,160406,1,4
384,256,162096,5,4
256,192,163575,5,0
256,192,163786,1,4
256,192,164631,5,4
256,192,165265,5,0
256,192,165476,1,4
464,192,166321,5,4
464,192,166955,5,0
464,192,167166,1,4
304,192,167589,5,12
176,96,168011,5,4
304,192,168434,1,12
432,96,168856,5,4
352,120,169068,1,4
392,192,169278,5,12
352,264,169490,1,4
272,264,169701,5,12
304,192,169913,5,4
304,192,170018,1,4
304,192,170124,1,12
224,200,170335,5,12
264,128,170546,1,0
256,192,170652,12,4,172237
