osu file format v12

[General]
AudioFilename: 15. Groove Coverage - God Is A Girl (Radio Edit).mp3
AudioLeadIn: 1000
PreviewTime: 31117
Countdown: 0
SampleSet: Soft
StackLeniency: 0.4
Mode: 0
LetterboxInBreaks: 0
EpilepsyWarning: 1

[Editor]
DistanceSpacing: 1
BeatDivisor: 4
GridSize: 8

[Metadata]
Title:God Is a Girl (Radio Edit)
TitleUnicode:God Is a Girl (Radio Edit)
Artist:Groove Coverage
ArtistUnicode:Groove Coverage
Creator:BounceBabe
Version:Easy
Source:
Tags:techno axel konrad dj novus melanie munch covergirl
BeatmapID:230362
BeatmapSetID:83430

[Difficulty]
HPDrainRate:1
CircleSize:2
OverallDifficulty:1
ApproachRate:2
SliderMultiplier:1
SliderTickRate:1

[Events]
//Background and Video events
0,0,"Girl.jpg",0,0
//Break Periods
2,60906,65765
2,101458,109709
//Storyboard Layer 0 (Background)
//Storyboard Layer 1 (Fail)
//Storyboard Layer 2 (Pass)
//Storyboard Layer 3 (Foreground)
//Storyboard Sound Samples
//Background Colour Transformations
3,100,255,255,255

[TimingPoints]
1540,422.535211267606,4,2,1,40,1,0
31962,-100,4,2,1,50,0,0
45483,-100,4,1,2,40,0,0
59004,-100,4,2,1,60,0,0
60694,-100,4,1,1,40,0,0
72526,-100,4,1,1,70,0,0
87737,-100,4,1,1,80,0,1
101258,-100,4,1,1,80,0,0
101364,-100,4,2,1,80,0,0
114779,-100,4,1,2,50,0,0
128300,-100,4,2,1,60,0,0
156821,-100,4,1,1,80,0,0
185765,-100,4,1,1,80,0,1
199286,-100,4,1,1,80,0,0
199392,-100,4,2,1,80,0,0
205941,-100,4,2,1,60,0,0
207737,-100,4,2,1,50,0,0
209427,-100,4,2,1,40,0,0
211117,-100,4,2,1,30,0,0

[Colours]
Combo1 : 131,131,131
Combo2 : 255,200,120
Combo3 : 184,184,184
Combo4 : 255,128,128

[HitObjects]
400,24,3230,2,2,P|493:34|504:124,1,200
352,248,4920,2,2,B|216:184|251:413|106:345,1,300,2|0,0:0|0:0,0:0:0:0:
24,288,6610,6,2,B|24:168|24:168|64:136|56:96,1,200
248,48,8300,2,2,B|352:48|352:48|360:120|360:120|440:120|440:192,1,300,2|0,0:0|0:0,0:0:0:0:
440,296,9990,6,2,B|360:352|360:352|312:368|256:352,1,200
64,320,11680,2,2,P|160:232|48:176,1,300,2|0,0:0|0:0,0:0:0:0:
24,80,13371,6,2,P|136:80|212:124,1,200
320,288,15061,2,2,B|376:328|424:280|424:280|408:208|472:184|472:184|480:112,1,300,2|0,0:0|0:0,0:0:0:0:
496,24,16751,6,2,B|432:20|384:60|384:124|384:124|344:136,1,200
160,176,18441,2,2,B|72:152|32:256|32:256|120:280|136:336,1,300,2|0,0:0|0:0,0:0:0:0:
232,336,20131,6,2,B|232:296|208:264|208:264|268:224|256:156,1,200
440,72,21821,2,2,B|496:168|440:280|440:280|456:328|448:368,1,300,2|0,0:0|0:0,0:0:0:0:
348,360,23511,6,2,B|356:324|336:284|336:284|344:260,1,100
240,264,24357,2,2,B|246:284|246:284|226:324|234:360,1,100
136,364,25202,2,2,B|132:320|144:280|144:280|80:224|94:153|94:153|64:116|68:84,1,300
168,80,26892,6,2,L|272:40,1,100
288,144,27737,2,2,L|194:179,1,100
232,272,28582,2,2,B|328:236|328:236|384:240,2,150
136,304,30272,1,4,0:0:0:0:
48,128,31117,6,0,P|64:80|104:56,1,100
208,48,31962,2,0,P|280:104|376:64,1,200,2|2,0:0|0:0,0:0:0:0:
472,64,33230,1,0,0:0:0:0:
432,152,33652,2,0,B|360:232|445:255|380:345,1,200,2|2,0:0|0:0,0:0:0:0:
288,336,34920,1,0,0:0:0:0:
188,336,35342,6,2,P|128:328|96:304,2,100
288,336,36610,1,0,0:0:0:0:
236,248,37033,2,2,P|185:215|166:180,2,100
336,248,38300,1,0,0:0:0:0:
416,184,38723,6,0,B|464:152|464:152|516:88|472:20,1,200,2|2,0:0|0:0,0:0:0:0:
392,80,39990,1,0,0:0:0:0:
320,144,40413,2,0,L|120:144,1,200,2|2,0:0|0:0,0:0:0:0:
56,224,41680,1,0,0:0:0:0:
8,312,42103,6,2,B|48:344|48:344|96:344,2,100
56,224,43371,1,0,0:0:0:0:
152,256,43793,2,2,B|200:256|200:256|240:288,2,100
56,224,45061,1,0,0:0:0:0:
136,160,45483,6,0,B|191:144|191:144|191:96|231:64,2,150,6|6|10,0:0|0:0|0:0,0:0:0:0:
56,224,47173,2,0,B|96:280|168:256|168:256|240:232,1,200,6|2,0:0|0:0,0:0:0:0:
336,208,48441,1,8,0:0:0:0:
432,176,48864,6,0,P|428:248|372:300,2,150,6|6|10,0:0|0:0|0:0,0:0:0:0:
336,208,50554,2,0,P|340:136|396:84,2,150,2|2|10,0:0|0:0|0:0,0:0:0:0:
264,272,52244,6,0,B|240:340|240:340|160:344,1,150,6|6,0:0|0:0,0:0:0:0:
16,344,53511,1,8,0:0:0:0:
88,280,53934,2,0,P|128:200|80:104,1,200,6|2,0:0|0:0,0:0:0:0:
168,48,55202,1,8,0:0:0:0:
264,48,55624,6,0,L|416:48,2,150,6|6|10,0:0|0:0|0:0,0:0:0:0:
240,144,57314,2,0,L|392:144,2,150,6|6|10,0:0|0:0|0:0,0:0:0:0:
140,144,59004,1,0,0:0:0:0:
40,144,59427,6,2,P|60:204|88:228,3,100,2|2|2|4,0:0|0:0|0:0|0:0,0:0:0:0:
392,352,67455,6,0,B|480:320|440:264|440:264|504:176|472:88,1,300,4|0,0:0|0:0,0:0:0:0:
400,24,69145,2,0,B|280:24|280:24|232:72|168:48|168:48|112:64,1,300,4|0,0:0|0:0,0:0:0:0:
16,88,70835,2,0,B|8:200|104:224|104:224|104:312|104:312|144:320,1,300,4|0,0:0|0:0,0:0:0:0:
232,328,72526,6,4,L|344:328,1,100
360,232,73371,2,4,L|460:232,1,100
496,136,74216,6,2,P|464:104|408:96,2,100
460,232,75483,1,8,0:0:0:0:
424,328,75906,2,2,P|456:360|512:368,2,100
356,252,77173,1,8,0:0:0:0:
292,328,77596,2,2,L|188:328,2,100
356,252,78864,2,0,L|356:148,1,100,8|2,0:0|0:0,0:0:0:0:
352,48,79709,6,2,B|292:56|264:108|264:108|208:120|176:96,1,200,2|10,0:0|0:0,0:0:0:0:
80,88,80976,6,2,P|104:32|136:8,2,100,2|10|2,0:0|0:0|0:0,0:0:0:0:
64,184,82244,2,0,L|40:288,2,100,0|2|10,0:0|0:0|0:0,0:0:0:0:
160,152,83511,1,2,0:0:0:0:
256,184,83934,2,0,L|280:288,2,100,0|2|10,0:0|0:0|0:0,0:0:0:0:
232,88,85202,1,2,0:0:0:0:
328,112,85624,2,0,P|376:96|400:56,1,100,0|2,0:0|0:0,0:0:0:0:
496,40,86469,6,2,B|496:120|440:168|440:168|448:200|472:216,1,200
472,312,87737,6,2,L|360:312,2,100,2|10|2,0:0|0:0|0:0,0:0:0:0:
272,328,89427,2,2,L|160:328,2,100,2|10|2,0:0|0:0|0:0,0:0:0:0:
72,336,91117,2,2,P|40:296|40:248,2,100,2|10|2,0:0|0:0|0:0,0:0:0:0:
40,136,92807,6,2,P|128:160|152:256,1,200
236,312,94075,1,0,0:0:0:0:
332,336,94497,6,2,P|388:328|420:296,2,100,2|10|2,0:0|0:0|0:0,0:0:0:0:
504,232,96188,2,2,P|473:203|417:195,2,100,2|10|2,0:0|0:0|0:0,0:0:0:0:
336,128,97878,2,2,P|366:99|422:91,2,100,2|10|2,0:0|0:0|0:0,0:0:0:0:
280,212,99145,1,0,0:0:0:0:
248,304,99568,6,2,P|160:280|144:184,2,200,2|2|6,0:0|0:0|0:0,0:0:0:0:
256,192,111399,12,2,113089,0:0:0:0:
416,28,113934,6,0,P|480:60|448:172,1,200,0|2,0:0|0:0,0:0:0:0:
388,356,115624,2,0,P|324:324|356:212,1,200,0|6,0:0|0:0,0:0:0:0:
168,128,117314,2,0,B|80:104|32:176,2,150,0|4|0,0:0|0:0|0:0,0:0:0:0:
264,164,119004,2,0,P|196:252|131:224,1,200,0|6,0:0|0:0,0:0:0:0:
80,352,120695,6,0,B|192:360|192:360|232:344|288:352,1,200,0|6,0:0|0:0,0:0:0:0:
448,248,122385,2,0,B|336:240|336:240|296:256|240:248,1,200,0|6,0:0|0:0,0:0:0:0:
344,72,124075,2,0,L|496:88,2,150,0|4|0,0:0|0:0|0:0,0:0:0:0:
264,136,125765,2,0,B|217:129|177:145|177:145|65:137,1,200,0|6,0:0|0:0,0:0:0:0:
88,336,127455,6,0,P|136:352|184:344,1,100,4|4,0:0|0:0,0:0:0:0:
272,304,128300,6,2,P|336:272|408:296,2,150,2|2|0,0:0|0:0|0:0,0:0:0:0:
184,344,129990,1,2,0:0:0:0:
40,208,130835,6,2,P|16:136|48:72,2,150
120,144,132526,2,2,B|200:120|200:168|272:144,1,150
432,328,134216,6,2,P|504:288|472:192,2,200
336,328,136328,2,2,L|224:328,1,100,0|2,0:0|0:0,0:0:0:0:
64,224,137596,6,2,B|88:176|88:176|64:152|112:80|96:32,2,200
40,320,139709,1,2,0:0:0:0:
256,192,140131,12,2,141821,0:0:0:0:
456,336,142666,6,0,P|432:304|440:248,1,100
464,152,143511,2,2,P|464:72|360:56,1,200
269,91,144779,1,0,0:0:0:0:
176,128,145202,2,2,B|120:128|88:168|88:168|96:224|40:248,1,200
40,344,146469,1,0,0:0:0:0:
140,344,146892,6,2,L|244:344,2,100
340,344,148582,2,2,L|444:344,2,100
288,260,149850,1,0,0:0:0:0:
240,176,150272,6,2,P|152:136|168:48,1,200
336,160,151962,2,2,P|424:200|408:288,1,200
328,344,153230,1,0,0:0:0:0:
232,344,153652,6,2,P|184:336|152:296,2,100
144,168,155342,2,2,P|112:129|64:121,2,100
224,232,156610,1,0,0:0:0:0:
304,296,157033,6,0,P|384:288|400:184,2,200,4|0|4,0:0|0:0|0:0,0:0:0:0:
104,328,159568,2,0,L|48:240,1,100
16,152,160413,2,0,B|32:80|32:80|112:80|152:32,2,200,4|0|4,0:0|0:0|0:0,0:0:0:0:
216,112,162948,6,0,L|320:104,1,100
416,80,163793,2,0,B|424:120|408:152|408:152|464:272,1,200,4|4,0:0|0:0,0:0:0:0:
488,360,165061,1,0,0:0:0:0:
392,336,165483,2,0,B|336:304|280:352|280:352|224:344|208:304,1,200,4|4,0:0|0:0,0:0:0:0:
16,272,167173,6,4,P|-8:216|8:184,2,100
96,88,168864,2,4,P|120:144|104:176,2,100
176,32,170131,2,4,L|288:32,1,100
376,32,170976,6,2,P|448:72|416:176,1,200
424,272,172244,6,2,L|480:360,2,100,2|10|2,0:0|0:0|0:0,0:0:0:0:
336,232,173511,1,0,0:0:0:0:
248,272,173934,2,2,L|192:360,2,100,2|10|2,0:0|0:0|0:0,0:0:0:0:
336,232,175202,1,0,0:0:0:0:
256,176,175624,2,2,P|208:152|160:168,2,100,2|10|2,0:0|0:0|0:0,0:0:0:0:
336,232,176892,2,0,L|416:168,1,100,0|2,0:0|0:0,0:0:0:0:
488,104,177737,6,2,B|444:64|384:76|384:76|328:88|296:48,1,200,10|2,0:0|0:0,0:0:0:0:
200,48,179004,6,2,L|88:48,2,100,2|10|2,0:0|0:0|0:0,0:0:0:0:
184,144,180272,2,0,L|72:144,2,100,0|2|10,0:0|0:0|0:0,0:0:0:0:
284,144,181540,1,2,0:0:0:0:
384,144,181962,2,0,P|420:180|428:228,2,100,0|2|10,0:0|0:0|0:0,0:0:0:0:
284,144,183230,1,2,0:0:0:0:
328,232,183652,2,0,P|336:278|372:314,1,100,0|2,0:0|0:0,0:0:0:0:
472,328,184497,6,2,P|536:256|512:160,1,200
464,80,185765,6,2,B|424:48|424:48|376:48,2,100,2|10|2,0:0|0:0|0:0,0:0:0:0:
264,48,187455,2,2,B|224:80|224:80|176:80,2,100,2|10|2,0:0|0:0|0:0,0:0:0:0:
64,80,189145,2,2,L|64:184,2,100,0|8|0,0:0|0:0|0:0,0:0:0:0:
64,280,190835,6,2,P|104:344|216:328,1,200
316,328,192103,1,0,0:0:0:0:
416,324,192526,6,2,B|464:316|464:316|488:252,2,100,2|10|2,0:0|0:0|0:0,0:0:0:0:
484,136,194216,2,2,B|436:144|436:144|412:208,2,100,2|10|2,0:0|0:0|0:0,0:0:0:0:
332,264,195906,2,2,P|308:212|312:168,2,100,2|10|2,0:0|0:0|0:0,0:0:0:0:
140,328,197596,6,2,P|220:264|164:192,2,200
256,192,199392,12,2,206047,0:0:0:0:
168,280,206892,5,0,0:0:0:0:
272,112,207737,2,0,P|352:88|432:160,1,200,2|0,0:0|0:0,0:0:0:0:
240,208,209427,2,0,P|160:232|80:160,2,200,2|0|2,0:0|0:0|0:0,0:0:0:0:
416,296,211962,6,0,P|384:248|344:224,2,100,0|4|4,0:0|0:0|0:0,0:0:0:0:
