osu file format v5

[General]
AudioFilename: 7 Years and 50 Days.mp3
AudioLeadIn: 0
PreviewTime: -1
Countdown: 1
SampleSet: None
StackLeniency: 0.7
Mode: 0
LetterboxInBreaks: 1

[Editor]
DistanceSpacing: 0.800000011920929
BeatDivisor: 4
GridSize: 32

[Metadata]
Title:7 Years and 50 Days
Artist:Groove Coverage
Creator:xRenesmee
Version:Normal
Source:
Tags:

[Difficulty]
HPDrainRate:5
CircleSize:5
OverallDifficulty:5
SliderMultiplier:1.2
SliderTickRate:1

[Events]
//Background and Video events
0,0,"[large][AnimePaper]wallpapers_Bleach_ShiNocturne(1_6)__THISRES__88312.jpg"
//Break Periods
//Storyboard Layer 0 (Background)
//Storyboard Layer 1 (Fail)
//Storyboard Layer 2 (Pass)
//Storyboard Layer 3 (Foreground)
//Storyboard Sound Samples
//Background Colour Transformations
3,100,163,162,255

[TimingPoints]
1710.4045959499,220.320934160761,4,0,0,100,1,0

[HitObjects]
256,192,2,12,0,5150
256,192,2716,12,0,8832
273,182,9028,5,0
312,198,9476,1,0
280,249,10106,1,0
253,250,10380,1,0
199,223,10996,1,0
203,142,11836,1,0
260,159,12464,1,0
273,211,13032,1,0
303,243,13496,1,0
342,246,13908,1,0
189,189,15604,1,0
146,174,16068,1,0
112,199,16504,1,0
94,233,16910,1,0
119,284,17504,1,0
147,291,17816,1,0
167,293,18036,1,0
201,228,18796,1,0
248,207,19338,1,0
295,228,19880,1,0
296,272,20348,1,0
254,277,20785,1,0
148,173,22324,1,0
131,214,22787,1,0
135,236,23026,1,0
154,246,23256,1,0
226,257,24024,1,0
251,252,24292,1,0
301,241,24828,1,0
331,149,25830,1,0
370,116,26364,1,0
346,89,26732,1,0
303,88,27172,1,0
266,116,27652,1,0
355,233,29187,1,0
337,274,29655,1,0
314,268,29892,1,0
288,258,30176,1,0
226,227,30895,1,0
208,219,31091,1,0
188,217,31296,1,0
145,229,31763,1,0
205,266,32503,1,0
221,276,32703,1,0
260,290,33139,1,0
304,284,33603,1,0
333,251,34059,1,0
354,218,34465,1,0
270,135,35687,1,0
246,140,35939,1,0
231,149,36120,1,0
195,174,36575,1,0
160,202,37043,1,0
181,230,37415,1,0
198,243,37643,1,0
214,253,37844,1,0
256,266,38307,1,0
297,253,38755,1,0
259,237,39183,1,0
240,230,39389,1,0
215,232,39643,1,0
183,237,39977,1,0
139,241,40435,1,0
105,224,40827,1,0
109,138,41723,2,0,B|419:196,3,320
211,267,50489,1,0
247,263,50875,1,0
288,250,51323,1,0
305,242,51527,1,0
322,202,51975,1,0
282,165,52531,1,0
247,177,52915,1,0
229,186,53119,1,0
210,193,53323,1,0
170,182,53745,1,0
153,142,54187,1,0
186,126,54567,1,0
228,127,55007,1,0
259,135,55343,1,0
275,159,55651,1,0
236,209,56311,1,0
222,220,56499,1,0
202,230,56727,1,0
215,267,57143,1,0
252,277,57547,1,0
293,272,57979,1,0
311,263,58187,1,0
300,243,58415,1,0
267,220,58827,1,0
224,223,59275,1,0
241,159,65565,5,0
260,169,65799,1,0
287,187,66147,1,0
231,223,66835,1,0
212,236,67067,1,0
162,249,67603,1,0
130,166,68523,1,0
190,170,69155,1,0
230,187,69619,1,0
249,197,69855,1,0
293,222,70391,1,0
164,307,71995,1,0
206,268,72589,1,0
240,248,73003,1,0
279,227,73467,1,0
293,189,73883,1,0
267,154,74335,1,0
244,159,74579,1,0
184,104,75419,1,0
209,108,75691,1,0
241,116,76043,1,0
272,140,76459,1,0
274,179,76869,1,0
244,203,77272,1,0
383,267,78874,1,0
404,217,79439,1,0
388,176,79890,1,0
313,144,80734,1,0
287,145,81002,1,0
250,153,81395,1,0
184,217,82354,1,0
222,242,82840,1,0
178,255,83310,1,0
134,268,83788,1,0
112,298,84175,1,0
213,171,85862,1,0
258,171,86338,1,0
280,199,86719,1,0
250,259,87418,1,0
224,261,87686,1,0
175,248,88203,1,0
132,184,88994,1,0
164,175,89338,1,0
203,174,89754,1,0
247,179,90226,1,0
285,177,90626,1,0
323,162,91050,1,0
110,192,93283,2,0,B|459:161|495:355|421:329,3,400
199,181,106274,1,0
342,209,107802,1,0
336,125,108674,1,0
270,158,109442,1,0
293,190,109858,1,0
274,226,110282,1,0
233,226,110704,1,0
192,231,111130,1,0
180,252,111378,1,0
213,281,111844,1,0
132,252,112738,1,0
128,207,113207,1,0
143,192,113426,1,0
188,199,113911,1,0
130,226,114570,1,0
113,235,114768,1,0
96,242,114954,1,0
58,215,115434,1,0
77,174,115900,1,0
256,192,116642,12,0,126865
205,146,127300,5,0
390,159,129233,1,0
195,110,131325,1,0
307,138,132537,1,0
260,198,133327,1,0
286,300,134429,1,0
205,271,135319,1,0
256,242,135933,1,0
251,195,136417,1,0
198,144,137177,1,0
180,143,137358,1,0
244,246,138629,5,0
283,256,139057,1,0
323,252,139485,1,0
350,225,139882,1,0
337,190,140265,1,0
293,191,140717,1,0
156,109,142369,1,0
165,146,142777,1,0
193,186,143293,1,0
225,203,143673,1,0
269,210,144141,1,0
291,237,144509,1,0
269,246,144753,1,0
205,172,145767,5,0
249,166,146229,1,0
282,138,146682,1,0
314,111,147113,1,0
354,89,147593,1,0
446,205,149145,1,0
399,203,149630,1,0
373,205,149893,1,0
349,210,150145,1,0
273,194,150949,1,0
299,127,151697,1,0
217,101,152585,1,0
201,126,152897,1,0
192,181,153485,1,0
222,208,153917,1,0
258,249,154493,1,0
328,130,155929,5,0
273,119,156505,1,0
231,156,157086,1,0
248,217,157749,1,0
265,227,157957,1,0
308,248,158461,1,0
368,183,159381,1,0
322,156,159933,1,0
276,174,160449,1,0
239,185,160843,1,0
201,157,161327,1,0
288,85,162502,1,0
309,119,162923,1,0
315,164,163401,1,0
280,189,163853,1,0
238,181,164297,1,0
223,163,164537,1,0
219,142,164749,1,0
254,124,165163,1,0
292,136,165585,1,0
243,198,166409,5,0
203,201,166817,1,0
175,168,167262,1,0
170,121,167749,1,0
209,108,168177,1,0
226,104,168365,1,0
261,146,168941,1,0
229,184,169459,1,0
214,194,169643,1,0
201,208,169841,1,0
223,242,170270,1,0
261,253,170685,1,0
305,252,171149,1,0
321,252,171317,1,0
340,252,171517,1,0
366,221,171937,1,0
368,176,172405,1,0
332,146,172881,1,0
318,134,173065,1,0
296,125,173301,1,0
261,115,173673,1,0
218,103,174133,1,0
198,136,174537,1,0
195,175,174953,1,0
206,190,175152,1,0
309,243,176363,1,0
293,235,176543,1,0
293,235,176705,1,0
293,235,177125,1,0
293,235,177565,1,0
321,203,178005,1,0
327,178,178273,1,0
329,164,178413,1,0
314,125,178845,1,0
281,113,179205,1,0
230,108,179736,1,0
211,113,179936,1,0
194,122,180137,1,0
169,155,180576,1,0
156,201,181080,1,0
172,227,181407,1,0
212,245,181868,1,0
228,251,182048,1,0
267,261,182477,1,0
331,254,183152,1,0
351,247,183372,1,0
364,238,183537,1,0
366,189,184040,1,0
347,151,184472,1,0
303,122,185017,1,0
290,120,185152,1,0
294,170,185681,5,0
258,197,186145,1,0
214,197,186600,1,0
194,202,186813,1,0
181,216,187012,1,0
214,231,187392,1,0
253,233,187806,1,0
298,220,188301,1,0
318,186,188712,1,0
326,169,188904,1,0
223,117,190104,1,0
215,135,190316,1,0
319,260,192016,1,0
290,235,192408,1,0
308,192,192892,1,0
320,143,193412,1,0
305,129,193616,1,0
284,133,193832,1,0
255,166,194296,1,0
229,194,194700,1,0
261,225,195168,1,0
275,233,195344,1,0
294,232,195552,1,0
332,218,195981,1,0
357,188,196389,1,0
350,148,196808,1,0
323,112,197268,1,0
309,98,197468,1,0
269,97,197880,1,0
219,125,198472,1,0
208,146,198725,1,0
212,171,198990,1,0
245,186,199373,1,0
283,200,199804,1,0
208,217,200602,5,0
184,252,201046,1,0
231,263,201552,1,0
275,255,202020,1,0
293,239,202272,1,0
300,222,202460,1,0
304,186,202836,1,0
283,144,203316,1,0
246,144,203696,1,0
209,169,204160,1,0
298,246,205392,1,0
294,268,205632,1,0
274,274,205840,1,0
243,273,206160,1,0
204,238,206698,1,0
255,199,207365,1,0
258,149,207884,1,0
214,126,208400,1,0
166,144,208936,1,0
172,190,209424,1,0
200,218,209840,1,0
256,192,211632,12,0,216182
46,67,216920,6,0,B|452:67|446:67,1,400
