osu file format v7

[General]
AudioFilename: Groove Coverage - 21st Century Digital Girl Remix.mp3
AudioLeadIn: 1500
PreviewTime: 43578
Countdown: 0
SampleSet: Soft
StackLeniency: 0.4
Mode: 0
LetterboxInBreaks: 1

[Editor]
DistanceSpacing: 0.899999976158142
BeatDivisor: 4
GridSize: 8

[Metadata]
Title:21st Century Digital Girl Remix (Nightcore Ver.)
Artist:Groove Coverage
Creator:ztrot
Version:Hard
Source:Nightcore
Tags:

[Difficulty]
HPDrainRate:4
CircleSize:4
OverallDifficulty:6
SliderMultiplier:1.7
SliderTickRate:1

[Events]
//Background and Video events
0,0,"BG.jpg"
//Break Periods
2,66826,76750
//Storyboard Layer 0 (Background)
//Storyboard Layer 1 (Fail)
//Storyboard Layer 2 (Pass)
//Storyboard Layer 3 (Foreground)
//Storyboard Sound Samples
//Background Colour Transformations
3,100,163,162,255

[TimingPoints]
976,349.20265394017,4,2,0,80,1,0
13726,-100,4,1,0,0,0,0
13988,-100,4,1,0,81,0,0
14338,-200,4,1,0,80,0,0
15036,-100,4,1,0,80,0,0
106440,-100,4,1,0,30,0,0
107400,-100,4,1,0,50,0,0
109408,-100,4,1,0,70,0,0
112202,-100,4,1,0,80,0,0

[Colours]
Combo1 : 133,21,234
Combo2 : 128,0,0
Combo3 : 0,0,160
Combo4 : 0,89,0

[HitObjects]
112,64,976,2,0,B|272:0|336:184|176:248,1,340
448,344,2372,1,0
344,232,2722,1,0
448,120,3071,1,0
152,32,3769,6,0,B|-16:32|-16:216|168:216,1,340
432,344,5166,1,0
488,192,5515,1,0
432,40,5864,1,0
256,264,6563,6,0,B|536:200|24:200|280:72,1,340
64,328,7960,1,0
160,208,8309,1,0
256,328,8658,1,0
256,88,9356,6,0,B|256:208|136:208,2,170
256,328,10579,1,0
256,328,10753,1,0
392,264,11102,1,0
392,112,11452,1,0
256,40,11801,1,0
192,80,11975,1,0
128,40,12150,2,0,B|24:96|48:264|192:320|256:144|256:144|312:320|472:264|504:88|376:40,1,850
256,208,14420,6,0,B|256:368,1,127.5,4|4
104,336,15293,1,8
48,192,15642,1,0
96,136,15817,1,0
56,72,15991,1,8
208,96,16340,1,0
264,48,16515,1,0
336,64,16690,2,0,B|416:128|368:240,1,170,8|4
208,352,17563,5,0
128,352,17737,1,0
96,280,17912,1,0
128,208,18086,1,8
208,208,18261,1,0
240,280,18436,1,4
384,352,18785,5,8
304,352,18959,1,0
272,280,19134,1,0
304,208,19309,1,0
384,208,19483,2,0,B|467:287|379:356,1,170,8|4
416,128,20356,5,0
360,72,20531,1,0
296,120,20705,1,0
256,56,20880,1,8
216,120,21055,1,0
152,72,21229,1,0
96,128,21404,1,0
152,184,21578,1,8
256,312,21928,6,4,B|176:368|72:320,2,170
352,104,23150,1,0
400,48,23324,1,0
448,104,23499,1,0
448,184,23674,2,0,B|352:184|352:304,1,170,8|0
128,344,24547,5,0
128,344,24721,1,0
64,208,25070,1,8
64,56,25420,1,0
216,56,25769,1,8
216,136,25943,1,0
216,216,26118,1,0
256,192,26293,12,0,27166
256,344,27515,5,0
256,192,27864,1,8
256,40,28213,1,0
256,192,28563,1,8
368,296,28912,5,0
416,232,29086,1,0
408,152,29261,1,8
256,192,29610,1,0
256,272,29785,1,0
256,192,29959,1,8
104,152,30309,1,0
96,232,30483,1,0
136,297,30658,2,0,B|228:393|259:261,1,170,8|4
256,40,31531,5,0
192,80,31705,1,0
112,80,31880,1,0
136,152,32055,1,8
192,200,32229,1,0
256,240,32404,1,4
256,40,32753,5,8
320,80,32928,1,0
400,80,33102,1,0
376,152,33277,1,0
320,200,33451,2,0,B|320:296|248:360,1,170,12|4
120,184,34324,5,0
56,136,34499,1,0
56,56,34674,1,0
120,8,34848,1,8
184,56,35023,1,0
184,136,35197,1,0
256,176,35372,1,0
256,96,35547,1,8
256,320,35896,5,4
128,192,36245,1,4
384,192,36594,1,4
128,320,37118,5,0
128,240,37293,1,0
200,208,37467,1,0
256,264,37642,2,0,B|320:344|424:304,1,170,8|4
448,80,38515,5,0
448,80,38689,1,4
448,232,39039,1,8
328,328,39388,1,4
256,192,39737,1,8
256,112,39912,1,0
256,32,40086,5,4
40,192,40435,1,4
256,368,40785,1,4
472,192,41134,1,4
392,232,41483,5,0
256,32,41832,1,0
120,232,42181,1,0
256,32,42531,1,0
392,232,42880,1,4
56,48,43753,5,0
56,128,43927,1,0
56,208,44102,1,0
128,176,44277,1,0
192,136,44451,1,0
192,56,44626,2,2,B|304:56|304:184,1,170
256,216,45150,1,0
304,272,45324,2,2,B|304:376|432:376,1,170
456,312,45848,1,0
448,232,46023,1,2
488,168,46197,1,2
416,136,46372,1,2
256,192,46721,5,0
336,192,46896,1,0
320,264,47070,1,0
256,304,47245,1,0
176,304,47419,2,2,B|104:232|184:152,1,170
112,120,47943,1,0
160,56,48118,2,2,B|232:0|256:96|336:24,1,170
376,88,48642,1,0
328,152,48816,1,2
408,160,48991,1,2
328,152,49165,1,2
368,304,49515,5,0
432,264,49689,1,0
472,200,49864,1,0
472,120,50038,1,0
472,40,50213,2,2,B|376:0|360:96|288:24,1,170
232,40,50737,1,0
160,64,50911,2,2,B|136:160|224:224,1,170
168,280,51435,1,0
224,336,51610,1,2
280,280,51784,1,0
280,200,51959,1,2
368,336,52308,5,0
424,280,52483,1,0
424,200,52657,1,0
360,160,52832,1,0
424,120,53007,2,2,B|424:24|304:24,1,170
256,80,53530,1,0
200,24,53705,2,2,B|128:80|168:192,1,170
88,192,54229,1,0
104,264,54404,1,0
176,296,54578,1,0
248,264,54753,1,0
384,336,55102,5,0
448,296,55277,1,0
384,256,55451,2,4,B|208:184,1,170
104,104,56150,2,4,B|264:24,1,170
392,104,56848,1,0
328,144,57023,1,0
328,224,57197,1,0
256,256,57372,1,0
184,224,57546,1,0
56,56,57896,5,0
40,128,58070,1,0
64,200,58245,2,4,B|256:200,1,170
384,200,58943,2,4,B|384:320|256:320,1,170
136,320,59642,1,0
176,256,59816,1,0
248,288,59991,1,0
304,240,60165,1,0
352,184,60340,1,0
456,72,60689,5,0
376,72,60864,1,0
296,72,61038,2,4,B|192:72|192:184,1,170
88,72,61737,2,4,B|192:72|192:184,1,170
192,328,62435,1,0
256,288,62610,1,0
320,328,62784,1,0
384,288,62959,1,0
448,328,63134,1,0
384,192,63483,5,0
304,192,63657,1,0
224,192,63832,2,4,B|136:192|136:320,2,170
224,112,64705,1,0
144,112,64880,1,0
296,112,65229,5,0
376,120,65403,1,0
424,184,65578,1,0
408,256,65753,1,0
344,304,65927,1,0
208,240,66276,1,0
296,112,66626,1,4
256,96,77800,5,0
408,48,78149,1,8
464,192,78498,1,0
416,248,78673,1,0
456,312,78847,1,8
304,288,79196,1,0
248,336,79371,1,0
176,320,79546,2,0,B|96:256|144:144,1,170,8|4
304,32,80419,5,0
384,32,80593,1,0
416,104,80768,1,0
384,176,80942,1,8
304,176,81117,1,0
272,104,81292,1,4
128,32,81641,5,8
208,32,81815,1,0
240,104,81990,1,0
208,176,82165,1,0
128,176,82339,2,0,B|45:97|133:28,1,170,8|4
96,256,83212,5,0
152,312,83387,1,0
216,264,83561,1,0
256,328,83736,1,8
296,264,83911,1,0
360,312,84085,1,0
416,256,84260,1,0
360,200,84434,1,8
256,72,84784,6,4,B|336:16|440:64,2,170
160,280,86006,1,0
112,336,86180,1,0
64,280,86355,1,0
64,200,86530,2,0,B|160:200|160:80,1,170,8|0
384,40,87403,5,0
384,40,87577,1,0
448,176,87926,1,8
448,328,88276,1,0
296,328,88625,1,8
296,248,88799,1,0
296,168,88974,1,0
256,192,89149,12,0,90022
256,40,90371,5,0
256,192,90720,1,8
256,344,91069,1,0
256,192,91419,1,8
144,88,91768,5,0
96,152,91942,1,0
104,232,92117,1,8
256,192,92466,1,0
256,112,92641,1,0
256,192,92815,1,8
408,232,93165,1,0
416,152,93339,1,0
376,87,93514,2,0,B|284:-9|253:123,1,170,8|4
256,344,94387,5,0
320,304,94561,1,0
400,304,94736,1,0
376,232,94911,1,8
320,184,95085,1,0
256,144,95260,1,4
256,344,95609,5,8
192,304,95784,1,0
112,304,95958,1,0
136,232,96133,1,0
192,184,96307,2,0,B|192:88|264:24,1,170,12|4
392,200,97180,5,0
456,248,97355,1,0
456,328,97530,1,0
392,376,97704,1,8
328,328,97879,1,0
328,248,98053,1,0
256,208,98228,1,0
256,288,98403,1,8
256,64,98752,5,4
384,192,99101,1,4
128,192,99450,1,4
384,64,99974,5,0
384,144,100149,1,0
312,176,100323,1,0
256,120,100498,2,0,B|192:40|88:80,1,170,8|4
64,304,101371,5,0
64,304,101545,1,4
64,152,101895,1,8
184,56,102244,1,4
256,192,102593,1,8
256,272,102768,1,0
256,352,102942,5,4
472,192,103291,1,4
256,16,103641,1,4
40,192,103990,1,4
120,152,104339,5,0
256,352,104688,1,0
392,152,105037,1,0
256,352,105387,1,0
120,152,105736,1,4
456,336,106609,5,0
456,256,106783,1,0
456,176,106958,1,0
384,208,107133,1,0
320,248,107307,1,0
320,328,107482,2,2,B|208:328|208:200,1,170
256,168,108006,1,0
208,112,108180,2,2,B|208:8|80:8,1,170
56,72,108704,1,0
64,152,108879,1,2
24,216,109053,1,2
96,248,109228,1,2
256,192,109577,5,0
176,192,109752,1,0
192,120,109926,1,0
256,80,110101,1,0
336,80,110275,2,2,B|408:152|328:232,1,170
400,264,110799,1,0
352,328,110974,2,2,B|280:384|256:288|176:360,1,170
136,296,111498,1,0
184,232,111672,1,2
104,224,111847,1,2
184,232,112021,1,2
144,80,112371,5,0
80,120,112545,1,0
40,184,112720,1,0
40,264,112894,1,0
40,344,113069,2,2,B|136:384|152:288|224:360,1,170
280,344,113593,1,0
352,320,113767,2,2,B|376:224|288:160,1,170
344,104,114291,1,0
288,48,114466,1,2
232,104,114640,1,0
232,184,114815,1,2
144,48,115164,5,0
88,104,115339,1,0
88,184,115513,1,0
152,224,115688,1,0
88,264,115863,2,2,B|88:360|208:360,1,170
256,304,116386,1,0
312,360,116561,2,2,B|384:304|344:192,1,170
424,192,117085,1,0
408,120,117260,1,0
336,88,117434,1,0
264,120,117609,1,0
128,48,117958,5,0
64,88,118133,1,0
128,128,118307,2,4,B|304:200,1,170
408,280,119006,2,4,B|248:360,1,170
120,280,119704,1,0
184,240,119879,1,0
184,160,120053,1,0
256,128,120228,1,0
328,160,120402,1,0
456,328,120752,5,0
472,256,120926,1,0
448,184,121101,2,4,B|256:184,1,170
128,184,121799,2,4,B|128:64|256:64,1,170
376,64,122498,1,0
336,128,122672,1,0
264,96,122847,1,0
208,144,123021,1,0
160,200,123196,1,0
56,312,123545,5,0
136,312,123720,1,0
216,312,123894,2,4,B|320:312|320:200,1,170
424,312,124593,2,4,B|320:312|320:200,1,170
320,56,125291,1,0
256,96,125466,1,0
192,56,125640,1,0
128,96,125815,1,0
64,56,125990,1,0
128,192,126339,5,0
208,192,126513,1,0
288,192,126688,2,4,B|376:192|376:64,2,170
288,272,127561,1,0
368,272,127736,1,0
216,272,128085,5,0
136,272,128259,1,0
96,208,128434,1,0
96,128,128609,1,0
152,80,128783,1,0
296,128,129132,1,0
224,264,129482,1,4
