osu file format v6

[General]
AudioFilename: Fantasy trance.mp3
AudioLeadIn: 0
PreviewTime: -1
Countdown: 1
SampleSet: None
StackLeniency: 0.7
Mode: 0
LetterboxInBreaks: 1

[Editor]
Bookmarks: 328517
DistanceSpacing: 0.800000011920929
BeatDivisor: 6
GridSize: 32

[Metadata]
Title:Fantasy Trance
Artist:Gringer666
Creator:gringer666
Version:Normal
Source:
Tags:Trance,Gringer

[Difficulty]
HPDrainRate:5
CircleSize:5
OverallDifficulty:5
SliderMultiplier:1.4
SliderTickRate:4

[Events]
//Background and Video events
0,0,"trance.jpg"
//Break Periods
2,48450,48800
2,50200,50466
//Storyboard Layer 0 (Background)
//Storyboard Layer 1 (Fail)
//Storyboard Layer 2 (Pass)
//Storyboard Layer 3 (Foreground)
//Storyboard Sound Samples
//Background Colour Transformations
3,100,255,255,128

[TimingPoints]
0,1000,4,0,0,100,1,0

[HitObjects]
96,224,2333,1,0
192,224,4333,1,0
256,224,5500,1,0
320,224,6666,1,0
384,224,7666,1,0
448,224,8833,1,0
448,192,9833,1,0
448,160,10666,1,0
64,64,11833,1,0
64,128,12833,1,0
64,192,13833,1,0
128,224,14666,1,0
224,224,15666,1,0
288,224,16500,1,0
352,224,17500,1,0
256,192,19000,12,0,22625
96,96,25500,5,0
128,96,26125,1,0
160,96,26750,1,0
192,96,27125,1,0
224,96,27500,1,0
256,96,28000,1,0
288,96,28500,1,0
320,96,28875,1,0
384,96,29250,1,0
128,288,29625,1,0
160,288,30125,1,0
192,288,30625,1,0
224,288,31000,1,0
256,288,31375,1,0
320,288,31875,1,0
352,288,32375,1,0
384,288,32875,1,0
416,288,33125,1,0
64,64,34250,5,0
128,64,34625,1,0
192,64,35250,1,0
288,64,35750,1,0
352,64,36250,1,0
416,64,36750,1,0
128,192,37250,1,0
256,192,37875,1,0
320,192,38375,1,0
256,224,38875,1,0
256,256,39375,1,0
256,224,39750,1,0
256,224,39875,1,0
256,224,40125,1,0
256,224,40375,1,0
256,224,40500,1,0
256,224,40750,1,0
256,224,40875,1,0
256,224,41125,1,0
256,224,41250,1,0
256,224,41500,1,0
256,224,41625,1,0
256,224,41750,1,0
96,64,42625,5,0
96,64,43000,1,0
96,64,43375,1,0
128,64,43750,1,0
128,64,44125,1,0
160,64,44500,1,0
160,64,44875,1,0
192,64,45250,1,0
192,64,45625,1,0
192,64,45875,1,0
160,128,46375,1,0
160,160,46750,1,0
160,192,47125,1,0
160,224,47500,1,0
160,256,47875,1,0
160,256,48250,1,0
64,32,50000,6,0,B,3,455
96,320,51666,6,0,L|96:32|480:32|480:320|160:320|160:96|416:96|416:256|224:256|224:160|352:160|352:224,1,2520
288,64,71375,1,0
384,64,72125,1,0
288,128,73125,1,0
384,128,74000,1,0
96,192,74750,1,0
96,96,75500,1,0
128,128,76375,1,0
128,160,76750,1,0
128,192,77125,1,0
128,224,77500,1,0
128,224,77875,1,0
128,256,78250,1,0
384,128,79500,1,0
384,160,79875,1,0
384,192,80250,1,0
384,224,80625,1,0
384,256,81000,1,0
224,224,82000,1,0
384,64,83375,1,0
224,96,83750,1,0
96,160,84125,1,0
96,224,84625,1,0
192,224,85000,1,0
256,192,85375,1,0
288,160,85750,1,0
320,160,86125,1,0
384,128,86500,1,0
352,192,87000,1,0
352,192,87375,1,0
288,224,87625,1,0
288,224,87875,1,0
288,224,88000,1,0
256,224,88250,1,0
256,256,88375,1,0
256,256,88500,1,0
224,256,88750,1,0
224,256,88875,1,0
192,256,89125,1,0
160,256,89250,1,0
160,256,89500,1,0
160,256,89625,1,0
128,256,89875,1,0
128,256,90125,1,0
96,256,90250,1,0
96,256,90500,1,0
64,224,90625,1,0
64,224,90875,1,0
64,192,91125,1,0
64,192,91250,1,0
96,160,91500,1,0
96,160,91625,1,0
96,160,91875,1,0
128,160,92000,1,0
128,160,92250,1,0
160,160,92375,1,0
160,160,92625,1,0
192,160,92875,1,0
192,160,93000,1,0
224,160,93125,1,0
224,160,93375,1,0
256,160,93500,1,0
256,160,93750,1,0
288,160,94000,1,0
320,160,94125,1,0
320,160,94250,1,0
320,160,94500,1,0
352,160,94625,1,0
384,160,94875,1,0
384,160,95000,1,0
416,160,95250,1,0
448,160,95375,1,0
448,192,95625,1,0
448,192,95750,1,0
448,224,96000,1,0
448,224,96125,1,0
448,256,96375,1,0
448,256,96500,1,0
448,256,96750,1,0
448,288,97000,1,0
416,288,97125,1,0
416,288,97375,1,0
384,288,97625,1,0
384,288,97875,1,0
352,288,98000,1,0
320,288,98250,1,0
320,288,98375,1,0
288,288,98625,1,0
288,288,98875,1,0
256,288,99000,1,0
224,288,99250,1,0
224,288,99500,1,0
192,288,99625,1,0
160,256,99875,1,0
160,256,100125,1,0
160,224,101000,1,0
160,160,101375,1,0
320,96,102250,1,0
288,160,102625,1,0
288,224,103500,1,0
192,128,105125,5,0
256,224,105875,1,0
416,128,106625,1,0
128,224,107375,1,0
160,288,107750,1,0
320,288,108125,1,0
384,288,108500,1,0
384,224,108875,1,0
384,160,109125,1,0
384,128,109750,1,0
320,96,110125,1,0
192,128,110625,1,0
192,192,111000,1,0
192,224,111375,1,0
192,288,111625,1,0
256,256,112000,1,0
256,224,112375,1,0
256,192,112750,1,0
256,128,113125,1,0
256,128,113500,1,0
256,64,113875,1,0
256,64,114125,1,0
256,64,114375,1,0
256,64,114500,1,0
256,64,114750,1,0
256,64,114875,1,0
256,64,115000,1,0
256,64,115250,1,0
256,64,115375,1,0
160,192,115875,5,0
224,256,116750,1,0
288,192,117625,1,0
192,192,118375,1,0
64,64,120375,1,0
64,96,120750,1,0
64,128,121125,1,0
64,160,121500,1,0
64,192,121875,1,0
64,256,122250,1,0
64,288,122750,1,0
64,320,123125,1,0
64,352,123500,1,0
128,352,123875,1,0
160,352,124250,1,0
192,352,124625,1,0
224,352,124875,1,0
256,352,125125,1,0
288,352,125500,1,0
320,352,125750,1,0
384,352,126125,1,0
416,352,126500,1,0
448,352,126875,1,0
416,288,127250,1,0
416,288,127625,1,0
416,288,127750,1,0
416,288,128000,1,0
416,288,128125,1,0
416,288,128250,1,0
416,288,128500,1,0
416,288,128625,1,0
352,288,129250,5,0
288,256,129750,1,0
288,224,130125,1,0
288,192,130500,1,0
288,160,130875,1,0
288,128,131250,1,0
256,96,131750,1,0
224,96,132125,1,0
192,96,132500,1,0
160,96,132875,1,0
160,192,133500,5,0
160,224,134000,1,0
288,224,134375,1,0
384,96,134875,1,0
256,96,135375,1,0
224,128,135750,1,0
192,192,136125,1,0
224,192,136375,1,0
224,224,136625,1,0
224,224,136750,1,0
224,256,137000,1,0
224,256,137125,1,0
288,256,137625,1,0
320,192,138000,1,0
288,128,138250,1,0
224,128,138625,1,0
160,128,139000,1,0
160,192,139375,1,0
160,224,139750,1,0
160,256,140125,1,0
192,288,140500,1,0
224,288,141000,1,0
224,256,141375,1,0
192,224,141875,1,0
192,224,142250,1,0
160,192,142625,1,0
160,160,143125,1,0
160,160,143375,1,0
160,160,143625,1,0
160,160,143875,1,0
352,64,144750,5,0
352,128,145500,1,0
352,96,146125,1,0
352,160,147125,1,0
352,192,147625,1,0
352,224,148000,1,0
352,256,148500,1,0
352,320,148875,1,0
352,288,149250,1,0
288,320,149625,1,0
256,320,150250,1,0
224,320,150500,1,0
192,320,150875,1,0
160,320,151125,1,0
128,320,151500,1,0
96,320,151875,1,0
64,320,152125,1,0
64,288,152875,1,0
64,256,153250,1,0
64,224,153625,1,0
64,192,154000,1,0
64,160,154250,1,0
64,128,154625,1,0
64,128,155000,1,0
64,96,155375,1,0
64,64,155750,1,0
96,64,156000,1,0
256,64,157375,5,0
256,96,158000,1,0
288,160,158500,1,0
224,160,159250,1,0
256,224,160250,1,0
256,192,161250,12,0,164625
64,96,165875,5,0
64,128,166625,1,0
64,160,167375,1,0
64,192,168250,1,0
64,224,168875,1,0
64,256,169625,1,0
64,288,170250,1,0
96,288,170750,1,0
128,288,171375,1,0
160,288,172125,1,0
192,288,172750,1,0
224,288,173500,1,0
256,288,174125,1,0
288,288,174750,1,0
320,288,175375,1,0
352,288,176125,1,0
384,288,176625,1,0
416,288,177125,1,0
448,288,177625,1,0
448,256,178250,1,0
448,224,178750,1,0
416,224,179375,1,0
384,224,180000,1,0
352,224,180625,1,0
352,224,180750,1,0
352,224,181000,1,0
352,224,181250,1,0
352,224,181375,1,0
352,224,181625,1,0
64,64,182875,6,0,B|448:352|448:352|-32:160,1,1032.5
192,192,191750,1,0
224,224,192125,1,0
224,224,192500,1,0
224,224,192875,1,0
320,224,193250,1,0
352,160,193875,1,0
288,160,194625,1,0
224,128,195250,1,0
160,128,196000,1,0
128,160,196625,1,0
128,192,197125,1,0
128,224,197625,1,0
128,256,198000,1,0
192,256,198375,1,0
256,96,199250,5,0
256,160,200250,1,0
224,160,201250,1,0
192,160,202000,1,0
160,288,203125,1,0
416,96,204125,1,0
96,96,205375,1,0
96,288,206375,1,0
416,288,207375,1,0
416,96,208250,1,0
128,96,209125,1,0
128,288,210000,1,0
352,288,210875,1,0
256,192,212000,1,0
352,128,213125,1,0
224,96,214375,1,0
160,192,215375,1,0
256,224,216375,1,0
352,160,217375,1,0
256,128,218250,1,0
96,224,219250,1,8
320,256,220000,1,8
384,160,220750,1,8
160,128,221875,5,8
160,160,222375,1,8
160,192,222875,1,8
160,224,223250,1,8
160,288,223750,1,8
160,256,224375,1,8
192,288,224750,1,8
224,288,225750,1,8
288,288,226125,1,8
256,288,226625,1,8
320,288,227000,1,8
320,288,227375,1,8
384,288,227625,1,8
384,288,228000,1,8
416,288,228375,1,8
480,288,228750,1,8
480,288,229000,1,8
480,224,230750,1,8
288,224,231500,1,8
288,256,231875,1,8
288,256,232250,1,8
288,288,232625,1,8
288,288,233000,1,8
288,320,233375,1,8
224,320,233750,1,8
224,320,234000,1,8
224,320,234375,1,8
32,64,236000,6,8,B|384:352,1,525
160,224,240750,5,8
352,128,241625,1,8
160,128,242250,1,8
160,160,242750,1,8
160,160,243125,1,8
160,256,244125,1,8
288,256,244875,1,8
320,192,245750,1,8
320,192,246000,1,8
320,128,246875,1,8
320,128,247125,1,8
320,64,247875,1,8
320,64,248125,1,8
256,64,249125,1,8
256,64,249250,1,8
160,128,249875,1,8
128,192,250375,1,8
128,224,250750,1,8
128,288,251125,1,8
128,320,251500,1,8
192,320,251875,1,8
256,320,252250,1,8
320,320,252625,1,8
384,320,253125,1,8
448,320,253500,1,8
448,256,253875,1,8
448,224,254250,1,8
448,192,254625,1,8
448,192,254875,1,8
448,128,255375,1,8
320,64,256000,5,8
64,192,256500,1,8
128,224,256875,1,8
352,192,257500,1,8
192,128,258250,1,8
192,192,258875,1,8
288,224,259375,1,8
288,160,259875,1,8
384,256,261000,1,8
256,288,261375,1,8
224,288,261750,1,8
160,256,262250,1,8
160,256,262500,1,8
160,224,262875,1,8
160,192,263250,1,8
192,160,263625,1,8
192,160,264000,1,8
192,128,264500,1,8
192,96,264750,1,8
288,96,266375,5,8
288,128,267250,1,8
288,160,268250,1,8
288,192,269000,1,8
288,224,269625,1,8
288,224,270000,1,8
288,224,270375,1,8
128,128,271875,5,8
192,128,272625,1,8
256,128,273500,1,8
288,128,274375,1,8
320,128,274875,1,8
384,128,275250,1,8
416,128,275750,1,8
160,96,277125,5,8
416,96,278125,1,8
128,192,278500,1,8
384,224,279000,1,8
160,288,279375,1,8
352,288,279875,1,8
128,64,280250,1,8
320,128,280875,1,8
128,224,281125,5,8
288,256,281750,1,8
128,320,282000,1,8
288,320,282500,1,8
128,64,283000,1,8
256,64,284000,5,8
128,192,284375,1,8
256,224,285250,1,8
128,288,285625,1,8
256,320,286125,1,8
32,32,286875,5,8
480,32,287875,1,8
480,352,288875,1,8
64,352,290000,1,8
32,32,291166,2,0,L|64:320|384:320,1,886.666666666667
256,192,298333,12,0,299666
384,32,301250,5,8
128,256,302125,1,8
384,160,303375,1,8
288,96,304250,1,8
96,224,305125,1,8
128,288,306000,1,8
192,288,307000,1,8
416,64,307875,5,8
96,96,309125,1,8
320,224,310250,1,8
128,320,311125,1,8
160,128,311875,1,8
192,128,312625,1,8
288,128,313250,1,8
288,128,313375,1,8
288,128,313500,1,8
288,128,313625,1,8
288,128,313875,1,8
288,128,314000,1,8
288,128,314125,1,8
288,128,314375,1,8
288,128,314500,1,8
288,128,314625,1,8
288,128,314875,1,8
288,128,315000,1,8
288,128,315250,1,8
288,128,315375,1,8
288,128,315500,1,8
288,128,315750,1,8
288,128,315875,1,8
288,128,316000,1,8
96,128,317125,1,8
96,192,317625,1,8
192,224,318375,5,8
288,192,318875,1,8
352,160,319375,1,8
352,96,319875,1,8
352,64,320375,1,8
320,32,320875,1,8
288,64,321375,1,8
256,96,322000,1,8
256,128,322500,1,8
256,160,322875,1,8
256,192,323500,1,8
256,224,324000,1,8
288,256,324375,1,8
320,256,324875,1,8
352,256,325375,1,8
384,256,325875,1,8
416,256,326250,1,8
480,224,326875,1,8
448,224,327250,1,8
