osu file format v12

[General]
AudioFilename: Luna & Twilight - Princess Of The Night.mp3
AudioLeadIn: 0
PreviewTime: 18525
Countdown: 0
SampleSet: Soft
StackLeniency: 0.7
Mode: 0
LetterboxInBreaks: 0
WidescreenStoryboard: 0

[Editor]
DistanceSpacing: 1.2
BeatDivisor: 4
GridSize: 4

[Metadata]
Title:Princess of the Night
TitleUnicode:Princess of the Night
Artist:Griffin Lewis
ArtistUnicode:Griffin Lewis
Creator:Fatfan Kolek
Version:Irre's Extra
Source:Friendship is Witchcraft
Tags:my little pony mlp twilight sparkle luna Lanturn Irreversible
BeatmapID:339055
BeatmapSetID:109570

[Difficulty]
HPDrainRate:7
CircleSize:7
OverallDifficulty:7
ApproachRate:8
SliderMultiplier:1.90000000596046
SliderTickRate:2

[Events]
//Background and Video events
0,0,"Twilight-Sparkle-and-Princess-Luna-my-little-pony-friendship-is-magic-26214379-2048-1152.jpg",0,0
Video,-298,"FiW - Princess of the Night.avi"
//Break Periods
//Storyboard Layer 0 (Background)
//Storyboard Layer 1 (Fail)
//Storyboard Layer 2 (Pass)
//Storyboard Layer 3 (Foreground)
//Storyboard Sound Samples
//Background Colour Transformations
3,100,163,162,255

[TimingPoints]
2525,500,4,2,0,25,1,0
8525,-100,4,2,0,20,0,0
10525,-100,4,2,0,35,0,0
14525,-100,4,2,0,25,0,0
16525,-100,4,2,0,35,0,0
18525,-90.9090909090909,4,2,0,25,0,0
20525,-90.9090909090909,4,2,0,35,0,0
22525,-90.9090909090909,4,2,0,25,0,0
24525,-66.6666666666667,4,2,0,40,0,1
26525,-90.9090909090909,4,2,0,20,0,0
32525,-90.9090909090909,4,2,0,5,0,0

[Colours]
Combo1 : 151,0,0
Combo2 : 119,0,60
Combo3 : 128,0,255
Combo4 : 255,0,128
Combo5 : 128,0,128

[HitObjects]
92,100,2525,2,0,L|84:204,1,95.000000298023,4|0,0:0|0:0,0:0:0:0:
176,304,3025,2,0,L|184:200,1,95.000000298023,0|0,0:0|0:0,0:0:0:0:
92,100,3525,1,2,0:0:0:0:
184,209,3775,1,0,0:0:0:0:
236,84,4025,2,0,P|300:52|376:88,1,142.500000447034,0|0,0:0|0:0,0:0:0:0:
384,68,4525,6,0,P|376:124|396:160,1,95.000000298023,4|0,0:0|0:0,0:0:0:0:
460,216,5025,2,0,B|412:268|412:268|316:288,1,142.500000447034,2|0,0:0|0:0,0:0:0:0:
321,286,5525,1,2,0:0:0:0:
256,184,5775,1,0,0:0:0:0:
191,287,6025,1,0,0:0:0:0:
191,287,6525,5,2,0:0:0:0:
321,286,6775,1,0,0:0:0:0:
320,156,7025,1,0,0:0:0:0:
190,157,7275,1,0,0:0:0:0:
256,324,7525,1,2,0:0:0:0:
368,220,7775,1,0,0:0:0:0:
256,95,8025,2,0,P|204:63|124:91,1,142.500000447034,0|0,0:0|0:0,0:0:0:0:
104,64,8525,6,0,P|116:128|92:156,1,95.000000298023,2|0,0:0|0:0,0:0:0:0:
20,216,9025,1,2,0:0:0:0:
104,276,9275,1,0,0:0:0:0:
188,212,9525,2,0,P|240:204|280:240,1,95.000000298023,2|0,0:0|0:0,0:0:0:0:
320,320,10025,2,0,P|364:356|432:288,1,142.500000447034,4|0,0:0|0:0,0:0:0:0:
456,324,10525,6,0,L|444:220,1,95.000000298023,2|0,0:0|0:0,0:0:0:0:
300,144,11025,2,0,L|312:248,1,95.000000298023,2|0,0:3|0:0,0:0:0:0:
436,140,11525,1,2,0:0:0:0:
376,40,11775,1,0,0:0:0:0:
300,144,12025,2,0,B|229:166|229:166|159:143,1,142.500000447034,0|0,0:0|0:0,0:0:0:0:
160,178,12525,6,0,P|158:124|122:87,1,95.000000298023,2|0,0:0|0:0,0:0:0:0:
72,228,13025,2,0,P|74:282|110:319,1,95.000000298023,2|0,0:3|0:0,0:0:0:0:
192,280,13525,2,0,L|192:390,1,95.000000298023,2|0,0:0|0:0,0:0:0:0:
288,312,14025,2,0,P|315:274|292:180,1,142.500000447034,0|0,0:0|0:0,0:0:0:0:
285,169,14525,5,2,0:0:0:0:
360,92,14775,1,0,0:0:0:0:
392,196,15025,1,2,0:3:0:0:
392,196,15275,1,0,0:0:0:0:
296,104,15525,1,2,0:0:0:0:
412,136,15775,1,0,0:0:0:0:
322,219,16025,2,0,P|260:232|240:156,1,142.500000447034,0|0,0:0|0:0,0:0:0:0:
282,187,16525,6,0,L|234:283,1,95.000000298023,2|0,0:0|0:0,0:0:0:0:
148,344,17025,1,2,0:3:0:0:
132,232,17275,2,0,L|60:164,1,95.000000298023,0|2,0:0|0:0,0:0:0:0:
213,122,17775,2,0,L|285:190,1,95.000000298023,2|4,0:0|0:3,0:0:0:0:
360,248,18275,1,0,0:0:0:0:
432,148,18525,5,2,0:0:0:0:
432,148,18775,1,0,0:0:0:0:
340,64,19025,2,0,P|280:76|244:48,1,104.500003516912,0|0,0:3|0:0,0:0:0:0:
172,156,19525,2,0,P|112:144|76:176,1,104.500003516912,2|0,0:0|0:0,0:0:0:0:
96,343,20025,2,0,B|121:294|121:294|109:250|109:250|137:190,1,156.750005275368,4|0,0:3|0:0,0:0:0:0:
143,181,20525,5,2,0:0:0:0:
291,259,20775,1,0,0:0:0:0:
217,108,21025,1,0,0:3:0:0:
187,273,21275,1,0,0:0:0:0:
310,137,21525,2,0,B|292:88|292:88|307:38,1,104.500003516912,2|0,0:0|0:0,0:0:0:0:
403,163,22025,2,0,B|342:248|342:248|291:259,1,156.750005275368,4|0,0:3|0:0,0:0:0:0:
268,248,22525,6,0,P|218:260|202:316,1,104.500003516912,2|0,0:0|0:0,0:0:0:0:
292,352,23025,1,0,0:0:0:0:
404,164,23275,1,0,0:0:0:0:
404,164,23400,1,0,0:0:0:0:
404,164,23525,1,2,0:0:0:0:
268,248,23775,1,0,0:0:0:0:
196,124,24025,2,0,P|176:60|200:16,1,104.500003516912,4|0,0:3|0:0,0:0:0:0:
356,294,24525,6,0,L|216:320,1,142.500005882978,2|0,0:0|0:0,0:0:0:0:
280,148,25025,1,0,0:0:0:0:
428,184,25275,1,0,0:0:0:0:
280,148,25525,2,0,L|139:173,1,142.500005882978,2|2,0:0|0:0,0:0:0:0:
216,320,26025,2,0,L|436:276,1,213.750008824467,4|0,0:0|0:0,0:0:0:0:
448,272,26525,5,2,0:0:0:0:
348,135,26775,1,0,0:0:0:0:
509,187,27025,1,2,0:3:0:0:
348,239,27275,1,0,0:0:0:0:
448,102,27525,1,2,0:0:0:0:
448,272,27775,1,0,0:0:0:0:
348,135,28025,1,4,0:3:0:0:
80,249,28525,5,2,0:0:0:0:
200,287,28775,1,0,0:0:0:0:
173,159,29025,1,0,0:0:0:0:
53,121,29275,1,0,0:0:0:0:
146,37,29525,1,2,0:0:0:0:
266,75,29775,1,0,0:0:0:0:
290,200,30025,1,4,0:3:0:0:
72,320,30525,5,2,0:0:0:0:
170,210,30775,1,0,0:0:0:0:
304,270,31025,1,2,0:3:0:0:
183,353,31275,1,0,0:0:0:0:
100,233,31525,1,2,0:0:0:0:
188,116,31775,1,0,0:0:0:0:
150,273,32025,1,4,0:0:0:0:
256,192,32525,12,0,34025,0:0:0:0:
