osu file format v12

[General]
AudioFilename: Luna & Twilight - Princess Of The Night.mp3
AudioLeadIn: 0
PreviewTime: 18525
Countdown: 0
SampleSet: Soft
StackLeniency: 0.7
Mode: 0
LetterboxInBreaks: 0
WidescreenStoryboard: 0

[Editor]
Bookmarks: 17628
DistanceSpacing: 1.2
BeatDivisor: 4
GridSize: 4

[Metadata]
Title:Princess of the Night
TitleUnicode:Princess of the Night
Artist:Griffin Lewis
ArtistUnicode:Griffin Lewis
Creator:Fatfan Kolek
Version:Insane
Source:Friendship is Witchcraft
Tags:my little pony mlp twilight sparkle luna Lanturn Irreversible
BeatmapID:339058
BeatmapSetID:109570

[Difficulty]
HPDrainRate:7
CircleSize:4
OverallDifficulty:7
ApproachRate:8
SliderMultiplier:2.20000000596046
SliderTickRate:2

[Events]
//Background and Video events
0,0,"Twilight-Sparkle-and-Princess-Luna-my-little-pony-friendship-is-magic-26214379-2048-1152.jpg",0,0
Video,-298,"FiW - Princess of the Night.avi"
//Break Periods
//Storyboard Layer 0 (Background)
//Storyboard Layer 1 (Fail)
//Storyboard Layer 2 (Pass)
//Storyboard Layer 3 (Foreground)
//Storyboard Sound Samples
//Background Colour Transformations
3,100,163,162,255

[TimingPoints]
2525,500,4,2,0,25,1,0
8400,-100,4,2,0,20,0,0
10400,-100,4,2,0,35,0,0
14400,-100,4,2,0,25,0,0
16400,-100,4,2,0,30,0,0
18525,-100,4,2,0,25,0,0
20525,-100,4,2,0,30,0,0
22525,-100,4,2,0,25,0,0
24524,-83.3333333333333,4,2,0,40,0,1
26024,-100,4,2,0,40,0,1
26525,-100,4,2,0,20,0,0
32525,-100,4,2,0,5,0,0

[Colours]
Combo1 : 151,0,0
Combo2 : 119,0,60
Combo3 : 128,0,255
Combo4 : 255,0,128
Combo5 : 128,0,128

[HitObjects]
156,120,2525,2,0,P|208:100|260:108,1,110.000000298023,4|0,0:0|0:0,0:0:0:0:
148,196,3025,2,0,P|96:168|80:120,1,110.000000298023
116,56,3525,1,2,0:0:0:0:
260,108,3775,1,0,0:0:0:0:
148,196,4025,2,0,L|108:304,1,110.000000298023
256,232,4525,5,4,0:0:0:0:
364,196,4775,2,0,L|404:304,1,110.000000298023,0|2,0:0|0:0,0:0:0:0:
424,148,5275,2,0,P|368:120|316:136,1,110.000000298023,0|2,0:0|0:0,0:0:0:0:
148,196,5775,1,0,0:0:0:0:
256,300,6025,1,0,0:0:0:0:
64,252,6275,1,0,0:0:0:0:
76,296,6400,1,0,0:0:0:0:
112,324,6525,6,0,P|172:324|216:360,1,110.000000298023,2|0,0:0|0:0,0:0:0:0:
400,324,7025,2,0,P|340:324|296:360,1,110.000000298023
256,212,7525,1,2,0:0:0:0:
308,156,7775,2,0,P|256:136|200:160,1,110.000000298023
140,128,8275,6,0,P|144:188|188:224,1,110.000000298023,0|2,0:0|0:0,0:0:0:0:
337,220,8775,2,0,P|374:181|376:128,1,110.000000298023,0|2,0:0|0:0,0:0:0:0:
140,128,9275,1,0,0:0:0:0:
376,128,9525,1,2,0:0:0:0:
82,287,9775,1,0,0:0:0:0:
436,287,10025,1,4,0:0:0:0:
256,192,10275,1,0,0:0:0:0:
256,236,10400,1,0,0:0:0:0:
256,280,10525,6,0,P|284:332|332:348,1,110.000000298023,2|0,0:0|0:0,0:0:0:0:
432,144,11025,2,0,L|328:192,1,110.000000298023,2|0,0:3|0:0,0:0:0:0:
328,276,11525,2,0,L|432:228,1,110.000000298023,2|0,0:0|0:0,0:0:0:0:
256,280,12025,1,0,0:0:0:0:
144,132,12275,2,0,P|104:136|80:152,2,55.0000001490115,0|0|2,0:0|0:0|0:0,0:0:0:0:
164,56,12775,6,0,P|208:88|220:152,1,110.000000298023,0|2,0:0|0:3,0:0:0:0:
176,200,13275,1,0,0:0:0:0:
336,200,13525,1,2,0:0:0:0:
256,336,13775,1,0,0:0:0:0:
208,276,14025,2,0,P|256:256|308:280,1,110.000000298023
332,312,14400,1,0,0:0:0:0:
372,336,14525,6,0,P|436:324|464:284,1,110.000000298023,2|0,0:0|0:0,0:0:0:0:
336,200,15025,1,2,0:3:0:0:
140,336,15275,2,0,P|76:324|48:284,1,110.000000298023,0|2,0:0|0:0,0:0:0:0:
176,200,15775,1,0,0:0:0:0:
256,72,16025,1,0,0:0:0:0:
256,172,16275,1,0,0:0:0:0:
256,216,16400,1,0,0:0:0:0:
256,260,16525,6,0,L|256:372,2,110.000000298023,2|0|2,0:0|0:0|0:3,0:0:0:0:
136,100,17275,2,0,B|184:128|184:128|184:204,1,110.000000298023,0|2,0:0|0:0,0:0:0:0:
376,100,17775,2,0,B|328:128|328:128|328:204,1,110.000000298023,2|4,0:0|0:3,0:0:0:0:
440,368,18275,1,0,0:0:0:0:
328,256,18525,5,2,0:0:0:0:
488,208,18775,1,0,0:0:0:0:
384,312,19025,2,0,P|328:336|280:320,1,110.000000298023,0|0,0:3|0:0,0:0:0:0:
252,232,19525,1,2,0:0:0:0:
408,232,19775,2,0,L|328:152,1,110.000000298023,0|4,0:0|0:3,0:0:0:0:
104,232,20275,2,0,L|184:152,1,110.000000298023,0|2,0:0|0:0,0:0:0:0:
256,40,20775,5,0,0:0:0:0:
336,168,21025,2,0,B|384:184|384:184|400:200|400:248,2,110.000000298023,0|0|2,0:3|0:0|0:0,0:0:0:0:
208,112,21775,1,0,0:0:0:0:
240,292,22025,1,4,0:3:0:0:
336,168,22275,1,0,0:0:0:0:
336,248,22525,6,0,P|272:216|256:176,1,110.000000298023,2|0,0:0|0:0,0:0:0:0:
432,88,23025,2,0,B|408:132|408:132|424:172|408:200,1,110.000000298023,0|0,0:0|0:0,0:0:0:0:
208,112,23525,2,0,P|172:164|176:216,1,110.000000298023,2|0,0:0|0:0,0:0:0:0:
336,248,24025,1,4,0:3:0:0:
432,88,24275,1,0,0:0:0:0:
396,60,24400,1,0,0:0:0:0:
352,52,24525,5,2,0:0:0:0:
124,124,24775,2,0,P|144:56|200:28,1,131.999996329307,0|0,0:0|0:0,0:0:0:0:
304,272,25275,1,0,0:0:0:0:
208,112,25525,1,2,0:0:0:0:
96,287,25775,1,2,0:0:0:0:
416,96,26025,1,4,0:0:0:0:
320,224,26275,1,0,0:0:0:0:
304,272,26400,1,0,0:0:0:0:
272,312,26525,6,0,L|164:328,1,110.000000298023,2|0,0:0|0:0,2:0:0:0:
92,80,27025,2,0,L|200:64,1,110.000000298023,2|0,0:3|0:0,0:0:0:0:
288,64,27525,1,2,0:0:0:0:
368,184,27775,1,0,0:0:0:0:
180,144,28025,1,4,0:3:0:0:
76,328,28275,2,0,P|124:288|128:244,1,110.000000298023,0|2,0:0|0:0,0:0:0:0:
52,256,28775,5,0,0:0:0:0:
92,80,29025,2,0,B|120:104|120:104|112:136|64:160,2,110.000000298023,2|0|2,0:3|0:0|0:0,0:0:0:0:
180,144,29775,1,0,0:0:0:0:
52,256,30025,1,4,0:3:0:0:
248,196,30275,2,0,P|200:228|144:220,1,110.000000298023,0|2,0:0|0:0,0:0:0:0:
176,60,30775,5,0,0:0:0:0:
240,296,31025,1,2,0:3:0:0:
320,128,31275,2,0,B|372:104|372:104|412:116|420:144,1,110.000000298023,0|2,0:0|0:0,0:0:0:0:
420,292,31775,2,0,B|449:312|449:312|476:313,2,55.0000001490115,0|0|4,0:0|0:0|0:0,0:0:0:0:
256,192,32525,12,0,34025,0:0:0:0:
