osu file format v12

[General]
AudioFilename: Luna & Twilight - Princess Of The Night.mp3
AudioLeadIn: 0
PreviewTime: 18525
Countdown: 0
SampleSet: Soft
StackLeniency: 0.7
Mode: 0
LetterboxInBreaks: 0
WidescreenStoryboard: 0

[Editor]
DistanceSpacing: 1
BeatDivisor: 4
GridSize: 4

[Metadata]
Title:Princess of the Night
TitleUnicode:Princess of the Night
Artist:Griffin Lewis
ArtistUnicode:Griffin Lewis
Creator:Fatfan Kolek
Version:Hard
Source:Friendship is Witchcraft
Tags:my little pony mlp twilight sparkle luna Lanturn Irreversible
BeatmapID:339054
BeatmapSetID:109570

[Difficulty]
HPDrainRate:6
CircleSize:4
OverallDifficulty:6
ApproachRate:7
SliderMultiplier:1.80000000596046
SliderTickRate:2

[Events]
//Background and Video events
0,0,"Twilight-Sparkle-and-Princess-Luna-my-little-pony-friendship-is-magic-26214379-2048-1152.jpg",0,0
Video,-298,"FiW - Princess of the Night.avi"
//Break Periods
//Storyboard Layer 0 (Background)
//Storyboard Layer 1 (Fail)
//Storyboard Layer 2 (Pass)
//Storyboard Layer 3 (Foreground)
//Storyboard Sound Samples
//Background Colour Transformations
3,100,163,162,255

[TimingPoints]
2525,500,4,2,0,25,1,0
8400,-100,4,2,0,20,0,0
10400,-100,4,2,0,35,0,0
14400,-100,4,2,0,25,0,0
16400,-100,4,2,0,30,0,0
18525,-100,4,2,0,25,0,0
20525,-100,4,2,0,30,0,0
22525,-100,4,2,0,25,0,0
24525,-80,4,2,0,40,0,1
26525,-100,4,2,0,20,0,0
32525,-100,4,2,0,5,0,0

[Colours]
Combo1 : 151,0,0
Combo2 : 119,0,60
Combo3 : 128,0,255
Combo4 : 255,0,128
Combo5 : 128,0,128

[HitObjects]
140,56,2525,6,0,P|184:64|216:96,1,90.000000298023,4|0,0:0|0:0,0:0:0:0:
256,176,3025,1,0,0:0:0:0:
196,244,3275,1,0,0:0:0:0:
236,324,3525,2,0,P|184:336|140:316,1,90.000000298023,2|0,0:0|0:0,0:0:0:0:
96,252,4025,2,0,P|104:196|132:164,1,90.000000298023,0|0,0:0|0:0,0:0:0:0:
208,136,4525,6,0,B|244:128|244:128|276:144|308:140,1,90.000000298023,4|0,0:0|0:0,0:0:0:0:
440,132,5025,2,0,L|396:212,1,90.000000298023,2|0,0:0|0:0,0:0:0:0:
280,292,5525,2,0,L|324:212,1,90.000000298023,2|0,0:0|0:0,0:0:0:0:
352,128,6025,1,0,0:0:0:0:
192,44,6525,6,0,L|124:112,1,90.000000298023,2|0,0:0|0:0,0:0:0:0:
64,172,7025,1,0,0:0:0:0:
76,260,7275,2,0,P|96:304|132:324,1,90.000000298023,0|2,0:0|0:0,0:0:0:0:
160,236,7775,1,0,0:0:0:0:
200,156,8025,2,0,P|240:192|248:228,1,90.000000298023,0|0,0:0|0:0,0:0:0:0:
224,312,8525,5,2,0:0:0:0:
308,340,8775,1,0,0:0:0:0:
392,312,9025,1,2,0:0:0:0:
401,154,9275,2,0,L|440:236,2,90.000000298023,0|2|0,0:0|0:0|0:0,0:0:0:0:
420,68,10025,2,0,P|364:72|316:132,1,135.000000447034,4|0,0:0|0:0,0:0:0:0:
304,176,10525,5,2,0:0:0:0:
224,292,10775,1,0,0:0:0:0:
144,176,11025,1,2,0:3:0:0:
212,116,11275,2,0,P|176:88|128:88,1,90.000000298023,0|2,0:0|0:0,0:0:0:0:
64,148,11775,2,0,L|64:204,1,45.0000001490115,0|0,0:0|0:0,0:0:0:0:
64,240,12025,2,0,B|100:244|100:244|136:288|136:288|180:292,1,135.000000447034,0|0,0:0|0:0,0:0:0:0:
224,292,12525,5,2,0:0:0:0:
304,176,12775,1,0,0:0:0:0:
144,176,13025,1,2,0:3:0:0:
212,116,13275,2,0,L|288:60,1,90.000000298023,0|2,0:0|0:0,0:0:0:0:
368,116,13775,1,0,0:0:0:0:
452,74,14026,2,0,P|425:39|384:24,1,90.000000298023,0|0,0:0|0:0,0:0:0:0:
288,160,14525,6,0,P|315:195|356:210,1,90.000000298023,2|0,0:0|0:0,0:0:0:0:
448,208,15025,2,0,P|444:280|416:308,1,90.000000298023,2|0,0:3|0:0,0:0:0:0:
344,328,15525,1,2,0:0:0:0:
236,328,15775,1,0,0:0:0:0:
144,268,16025,1,0,0:0:0:0:
96,96,16525,6,0,L|159:28,1,90.000000298023,2|0,0:0|0:0,0:0:0:0:
175,120,17025,2,0,L|255:68,1,90.000000298023,2|0,0:3|0:0,0:0:0:0:
271,159,17525,2,0,L|379:158,2,90.000000298023,2|2|4,0:0|0:0|0:3,0:0:0:0:
212,228,18275,1,0,0:0:0:0:
176,312,18525,6,0,P|220:320|264:300,1,90.000000298023,2|0,0:0|0:0,0:0:0:0:
316,232,19025,2,0,P|364:240|396:264,1,90.000000298023,0|0,0:3|0:0,0:0:0:0:
448,340,19525,1,2,0:0:0:0:
448,340,19775,2,0,P|480:308|484:260,1,90.000000298023,0|4,0:0|0:3,0:0:0:0:
440,188,20275,1,0,0:0:0:0:
372,128,20525,6,0,L|288:88,1,90.000000298023,2|0,0:0|0:0,0:0:0:0:
212,136,21025,2,0,L|296:176,2,90.000000298023,0|0|2,0:3|0:0|0:0,0:0:0:0:
124,140,21775,1,0,0:0:0:0:
52,192,22025,2,0,B|52:244|52:244|84:268,1,90.000000298023,4|0,0:3|0:0,0:0:0:0:
132,336,22525,5,2,0:0:0:0:
212,220,22775,1,0,0:0:0:0:
292,336,23025,1,0,0:0:0:0:
376,304,23275,2,0,L|428:224,1,90.000000298023,0|2,0:0|0:0,0:0:0:0:
464,148,23775,1,0,0:0:0:0:
420,68,24025,1,4,0:3:0:0:
340,108,24275,2,0,L|293:86,1,45.0000001490115,0|0,0:0|0:0,0:0:0:0:
243,139,24525,6,0,P|222:81|251:31,2,112.500000372529,2|0|0,0:0|0:0|0:0,0:0:0:0:
344,213,25275,1,0,0:0:0:0:
306,330,25525,1,2,0:0:0:0:
182,330,25775,1,2,0:0:0:0:
145,213,26025,1,4,0:0:0:0:
243,139,26275,1,0,0:0:0:0:
243,139,26525,6,0,L|311:72,1,90.000000298023,2|0,0:0|0:0,0:0:0:0:
392,44,27025,2,0,P|440:64|452:104,1,90.000000298023,2|0,0:3|0:0,0:0:0:0:
428,184,27525,2,0,P|456:224|500:232,2,90.000000298023,2|0|4,0:0|0:0|0:3,0:0:0:0:
356,128,28275,1,0,0:0:0:0:
272,96,28525,5,2,0:0:0:0:
188,128,28775,1,0,0:0:0:0:
116,184,29025,2,0,P|88:224|44:232,2,90.000000298023,2|0|2,0:3|0:0|0:0,0:0:0:0:
116,96,29775,1,0,0:0:0:0:
192,48,30025,2,0,B|236:68|256:88|256:88|256:116,1,90.000000298023,4|0,0:3|0:0,0:0:0:0:
256,192,30525,5,2,0:0:0:0:
314,293,30775,1,0,0:0:0:0:
197,293,31025,1,2,0:3:0:0:
139,191,31275,1,0,0:0:0:0:
197,90,31525,1,2,0:0:0:0:
314,90,31775,1,0,0:0:0:0:
373,192,32025,1,4,0:0:0:0:
256,192,32525,12,0,34025,0:0:0:0:
