osu file format v13

[General]
AudioFilename: Gresby Nash - Fan Forever.mp3
AudioLeadIn: 1500
PreviewTime: 28725
Countdown: 0
SampleSet: Normal
StackLeniency: 0.7
Mode: 0
LetterboxInBreaks: 0
WidescreenStoryboard: 0

[Editor]
DistanceSpacing: 1.2
BeatDivisor: 4
GridSize: 4
TimelineZoom: 1

[Metadata]
Title:Fan Forever
TitleUnicode:Fan Forever
Artist:Gresby Nash
ArtistUnicode:Gresby Nash
Creator:Nozhomi
Version:oko's Normal
Source:
Tags:atmosphere piano all-stars 2014 league of legends lol paris okoratu
BeatmapID:423762
BeatmapSetID:175846

[Difficulty]
HPDrainRate:3.5
CircleSize:3
OverallDifficulty:3.8
ApproachRate:4.3
SliderMultiplier:0.999999999999999
SliderTickRate:1

[Events]
//Background and Video events
0,0,"bg.jpg",0,0
//Break Periods
//Storyboard Layer 0 (Background)
//Storyboard Layer 1 (Fail)
//Storyboard Layer 2 (Pass)
//Storyboard Layer 3 (Foreground)
//Storyboard Sound Samples
//Background Colour Transformations
3,100,0,0,0

[TimingPoints]
215,461.538461538462,4,2,0,100,1,0
215,-100,4,2,1,45,0,0
7945,-100,4,2,11,20,0,0
8176,-100,4,2,1,45,0,0
11638,-100,4,2,11,20,0,0
11868,-100,4,2,1,45,0,0
13484,-100,4,2,11,20,0,0
13715,-100,4,2,1,45,0,0
14984,-100,4,1,1,80,0,0
16484,-100,4,1,1,50,0,0
16715,-100,4,1,1,80,0,0
18330,-100,4,1,1,50,0,0
18561,-100,4,1,1,80,0,0
20176,-100,4,1,1,50,0,0
20407,-100,4,1,1,80,0,0
22253,-100,4,1,1,50,0,0
22484,-100,4,1,1,80,0,0
23868,-100,4,1,1,50,0,0
24099,-100,4,1,1,80,0,0
25715,-100,4,1,1,50,0,0
25945,-100,4,1,1,80,0,0
27561,-100,4,1,1,50,0,0
27791,-100,4,1,1,80,0,0
29638,-100,4,1,1,50,0,0
29868,-100,4,1,1,80,0,0
37022,-100,4,1,1,60,0,0
37253,-100,4,1,1,80,0,0
44522,-100,4,1,1,80,0,1
59291,-100,4,2,1,80,0,0
59407,-100,4,2,1,45,0,0
67022,-100,4,2,11,20,0,0
67253,-100,4,2,1,45,0,0
68868,-100,4,2,11,20,0,0
69099,-100,4,2,1,45,0,0
70368,-100,4,2,11,30,0,0
70715,-100,4,2,1,30,0,0
70945,-100,4,2,11,30,0,0
71176,-100,4,2,1,30,0,0
71407,-100,4,2,11,30,0,0
72215,-100,4,2,11,50,0,0
74061,-100,4,2,1,45,0,0
78099,-100,4,2,12,35,0,0
78330,-100,4,2,1,45,0,0
79945,-100,4,2,12,35,0,0
80176,-100,4,2,1,45,0,0
87445,-100,4,1,1,80,0,0
88368,-100,4,1,1,80,0,0
88715,-100,4,1,1,50,0,0
88945,-100,4,1,1,80,0,0
96099,-100,4,1,1,50,0,0
96330,-100,4,1,1,80,0,0
103599,-100,4,1,1,80,0,1
116868,-100,4,2,11,60,0,1
117791,-100,4,2,11,80,0,1
118368,-100,4,2,1,50,0,0
118484,-100,4,2,1,80,0,0
120215,-100,4,2,1,20,0,0
121830,-100,4,2,1,5,0,0

[Colours]
Combo1 : 109,109,231
Combo2 : 226,90,90
Combo3 : 236,147,236
Combo4 : 227,136,91

[HitObjects]
132,64,215,6,0,P|98:108|92:160,1,99.9999999999999,2|0,0:0|0:0,0:0:0:0:
128,263,1138,1,2,0:0:0:0:
246,279,1599,2,0,L|294:257,1,50,2|0,0:0|0:0,0:0:0:0:
348,276,2061,2,0,P|382:230|373:154,1,99.9999999999999,2|0,0:0|0:0,0:0:0:0:
312,93,2984,2,0,P|255:87|194:133,1,99.9999999999999,2|2,0:0|0:0,0:0:0:0:
169,141,3676,1,0,0:0:0:0:
169,141,3907,6,0,L|190:247,1,99.9999999999999,2|0,0:0|0:0,0:0:0:0:
258,335,4830,1,2,0:0:0:0:
337,243,5291,2,0,P|346:220|347:195,1,50,2|0,0:0|0:0,0:0:0:0:
371,139,5753,2,0,P|341:98|272:82,1,99.9999999999999,2|0,0:0|0:0,0:0:0:0:
183,121,6676,2,0,P|177:171|124:218,1,99.9999999999999,2|2,0:0|0:0,0:0:0:0:
86,218,7368,1,0,0:0:0:0:
86,218,7599,6,0,B|78:164|40:132|40:132|48:62|111:47,1,200,2|2,0:0|0:0,0:0:0:0:
212,29,8984,1,2,0:0:0:0:
330,46,9445,2,0,L|322:160,1,99.9999999999999,2|0,0:0|0:0,0:0:0:0:
285,259,10368,2,0,P|209:291|162:266,1,99.9999999999999,2|2,0:0|0:0,0:0:0:0:
139,267,11061,1,0,0:0:0:0:
139,267,11291,6,0,B|158:221|139:170|139:170|156:108|201:97,1,200,2|2,0:0|0:0,0:0:0:0:
324,88,12676,2,0,L|399:118,1,50,2|0,0:0|0:0,0:0:0:0:
378,167,13138,2,0,B|402:206|371:262|371:262|321:285|302:330,1,200,2|2,0:0|0:0,0:0:0:0:
183,330,14522,2,0,L|121:326,1,50,2|0,0:0|0:0,0:0:0:0:
87,286,14984,6,0,P|88:221|131:154,1,99.9999999999999,0|0,0:0|0:0,0:0:0:0:
155,81,15907,1,0,0:0:0:0:
246,159,16368,2,0,P|269:124|268:100,1,50
284,59,16830,2,0,L|399:20,1,99.9999999999999
456,120,17753,2,0,P|450:182|408:236,1,99.9999999999999
377,239,18445,1,0,0:0:0:0:
377,239,18676,6,0,L|265:188,1,99.9999999999999
208,108,19599,1,0,0:0:0:0:
126,197,20061,2,0,P|107:243|109:266,1,50
114,300,20522,2,0,P|162:308|209:292,1,99.9999999999999
262,183,21445,2,0,L|296:148,1,50
278,90,21907,2,0,L|312:55,1,50
351,9,22368,6,0,P|388:43|411:87,1,99.9999999999999,4|0,0:0|0:0,0:0:0:0:
411,206,23291,1,0,0:0:0:0:
323,288,23753,2,0,P|296:299|262:297,1,50
217,284,24215,2,0,L|184:171,1,99.9999999999999
157,71,25138,2,0,P|203:43|267:45,1,99.9999999999999
305,57,25830,1,0,0:0:0:0:
305,57,26061,6,0,L|276:181,1,99.9999999999999
220,257,26984,2,0,P|174:285|109:283,1,99.9999999999999
72,271,27676,1,0,0:0:0:0:
31,227,27907,2,0,L|60:103,1,99.9999999999999
123,31,28830,2,0,L|175:45,1,50,8|0,0:0|0:0,0:0:0:0:
187,101,29291,2,0,L|239:115,1,50,8|10,0:0|0:0,0:0:0:0:
248,172,29753,6,0,L|357:202,1,99.9999999999999,4|8,0:0|0:0,0:0:0:0:
462,175,30676,2,0,P|464:97|438:70,1,99.9999999999999,0|8,0:0|0:0,0:0:0:0:
404,47,31368,1,2,0:0:0:0:
343,49,31599,2,0,P|277:54|217:31,1,99.9999999999999,0|8,0:0|0:0,0:0:0:0:
128,8,32522,1,0,0:0:0:0:
49,99,32984,2,0,P|34:128|35:155,1,50,8|2,0:0|0:0,0:0:0:0:
22,204,33445,6,0,P|66:234|110:277,1,99.9999999999999,0|8,0:0|0:0,0:0:0:0:
198,333,34368,2,0,P|225:273|223:214,1,99.9999999999999,0|8,0:0|0:0,0:0:0:0:
225,179,35061,1,2,0:0:0:0:
208,121,35291,2,0,P|258:121|312:114,1,99.9999999999999,0|8,0:0|0:0,0:0:0:0:
412,174,36215,2,0,L|392:218,1,50
429,267,36677,2,0,L|409:311,1,50,8|2,0:0|0:0,0:0:0:0:
366,355,37138,6,0,P|309:357|259:325,1,99.9999999999999,4|8,0:0|0:0,0:0:0:0:
252,219,38061,1,0,0:0:0:0:
233,101,38522,2,0,P|186:114|156:138,1,50,8|2,0:0|0:0,0:0:0:0:
151,164,38984,2,0,B|148:195|135:211|135:211|151:233|149:265,1,99.9999999999999,0|8,0:0|0:0,0:0:0:0:
28,260,39907,2,0,P|16:206|38:148,1,99.9999999999999,0|8,0:0|0:0,0:0:0:0:
56,111,40599,1,2,0:0:0:0:
56,111,40830,6,0,L|155:78,1,99.9999999999999,0|8,0:0|0:0,0:0:0:0:
268,105,41753,1,0,0:0:0:0:
283,223,42215,2,0,P|263:249|240:263,1,50,8|2,0:0|0:0,0:0:0:0:
195,286,42676,2,0,P|182:216|188:159,1,99.9999999999999,0|8,0:0|0:0,0:0:0:0:
206,69,43599,2,0,L|253:88,1,50,8|0,0:0|0:0,0:0:0:0:
298,48,44061,2,0,L|345:67,1,50,8|2,0:0|0:0,0:0:0:0:
390,27,44522,5,4,0:0:0:0:
458,125,44984,2,0,B|449:157|466:176|466:176|459:208|434:225,1,99.9999999999999,8|0,0:0|0:0,0:0:0:0:
338,268,45907,2,0,L|287:222,1,50,10|2,0:0|0:0,0:0:0:0:
296,174,46368,1,0,0:0:0:0:
239,68,46830,2,0,P|203:106|197:128,1,50,8|0,0:0|0:0,0:0:0:0:
179,157,47291,2,0,P|126:132|100:77,1,99.9999999999999,0|10,0:0|0:0,0:0:0:0:
65,53,47984,1,2,0:0:0:0:
65,53,48215,6,0,B|51:85|17:99|17:99|10:139,1,99.9999999999999,0|12,0:0|0:0,0:0:0:0:
37,253,49138,1,0,0:0:0:0:
136,319,49599,2,0,P|169:316|200:301,1,50,10|2,0:0|0:0,0:0:0:0:
239,284,50061,2,0,L|198:180,1,99.9999999999999,0|8,0:0|0:0,0:0:0:0:
193,71,50984,2,0,L|240:90,1,50
285,50,51446,2,0,L|332:69,1,50,10|2,0:0|0:0,0:0:0:0:
386,92,51907,6,0,P|400:151|380:195,2,99.9999999999999,4|8|0,0:0|0:0|0:0,0:0:0:0:
285,50,53291,2,0,L|228:76,1,50,10|2,0:0|0:0,0:0:0:0:
198,115,53753,1,0,0:0:0:0:
214,233,54215,2,0,P|184:241|149:229,1,50,8|0,0:0|0:0,0:0:0:0:
107,223,54676,2,0,B|100:190|77:176|77:176|75:114,1,99.9999999999999,0|8,0:0|0:0,0:0:0:0:
96,77,55368,1,2,0:0:0:0:
96,77,55599,6,0,P|153:74|193:58,1,99.9999999999999,0|8,0:0|0:0,0:0:0:0:
303,12,56522,1,0,0:0:0:0:
407,71,56984,2,0,L|397:131,1,50,10|2,0:0|0:0,0:0:0:0:
422,175,57445,2,0,P|411:200|362:217,1,50
346,251,57907,1,4,0:0:0:0:
229,226,58368,2,0,P|221:248|218:276,2,50,8|0|8,0:0|0:0|0:0,0:0:0:0:
253,170,59061,1,10,0:0:0:0:
304,139,59291,5,2,0:0:0:0:
256,192,59522,12,2,62061,0:0:0:0:
264,38,62984,6,0,P|301:61|326:119,1,99.9999999999999,2|0,0:0|0:0,0:0:0:0:
325,230,63907,2,0,P|304:269|246:294,1,99.9999999999999,2|2,0:0|0:0,0:0:0:0:
195,293,64599,1,0,0:0:0:0:
139,270,64830,2,0,P|151:213|148:163,1,99.9999999999999,2|0,0:0|0:0,0:0:0:0:
143,51,65753,1,2,0:0:0:0:
262,32,66215,2,0,P|273:49|282:83,1,50,2|0,0:0|0:0,0:0:0:0:
256,132,66676,6,0,B|267:183|230:224|230:224|284:254|277:306|277:306,1,200,2|2,0:0|0:0,0:0:0:0:
158,283,68061,2,0,P|139:254|138:226,1,50,2|0,0:0|0:0,0:0:0:0:
136,181,68522,2,0,B|177:150|153:92|153:92|191:26|246:39,1,200,2|2,0:0|0:0,0:0:0:0:
349,58,69907,2,0,L|394:93,1,50,2|0,0:0|0:0,0:0:0:0:
417,141,70368,6,0,B|359:197|260:185,2,150,2|0|0,0:0|0:0|0:0,0:0:0:0:
256,192,72215,12,4,74061,0:0:0:0:
292,186,74984,6,0,P|243:205|193:185,1,99.9999999999999,2|0,0:0|0:0,0:0:0:0:
154,79,75907,1,0,0:0:0:0:
87,178,76368,1,0,0:0:0:0:
133,288,76830,1,0,0:0:0:0:
249,318,77291,1,0,0:0:0:0:
362,276,77753,6,0,B|406:189|315:176|354:70,1,200,2|0,0:0|0:0,0:0:0:0:
463,118,79138,1,0,0:0:0:0:
460,239,79599,2,0,B|453:342|388:380|325:357,1,200,2|0,0:0|0:0,0:0:0:0:
226,319,80984,2,0,P|198:291|195:268,1,50,2|0,0:0|0:0,0:0:0:0:
216,224,81445,6,0,P|224:164|196:112,1,99.9999999999999,2|0,0:0|0:0,0:0:0:0:
89,129,82368,2,0,P|81:189|108:240,1,99.9999999999999,0|0,0:0|0:0,0:0:0:0:
124,340,83291,2,0,P|189:320|219:284,1,99.9999999999999,2|0,0:0|0:0,0:0:0:0:
222,177,84215,2,0,P|261:121|304:103,1,99.9999999999999
406,88,85138,6,0,B|405:120|417:141|417:141|386:181,1,99.9999999999999,2|0,0:0|0:0,0:0:0:0:
310,266,86061,1,0,0:0:0:0:
198,221,86522,2,0,P|180:195|176:161,1,50
161,118,86984,1,2,0:0:0:0:
240,28,87445,1,0,0:0:0:0:
428,175,88368,2,0,P|423:197|391:229,1,50
355,250,88830,6,0,P|320:249|266:195,1,99.9999999999999,4|8,0:0|0:0,0:0:0:0:
253,90,89753,2,0,P|202:65|144:49,1,99.9999999999999,0|10,0:0|0:0,0:0:0:0:
100,56,90445,1,2,0:0:0:0:
61,102,90676,2,0,P|57:158|42:212,1,99.9999999999999,0|8,0:0|0:0,0:0:0:0:
122,294,91599,2,0,P|165:310|228:301,1,99.9999999999999,0|10,0:0|0:0,0:0:0:0:
269,274,92291,1,2,0:0:0:0:
269,274,92522,6,0,P|260:221|268:160,1,99.9999999999999,0|8,0:0|0:0,0:0:0:0:
315,66,93445,1,0,0:0:0:0:
408,140,93907,2,0,P|414:182|410:202,1,50,10|2,0:0|0:0,0:0:0:0:
397,247,94368,2,0,L|344:337,1,99.9999999999999,0|8,0:0|0:0,0:0:0:0:
233,301,95291,2,0,L|213:250,1,50,0|0,0:0|0:0,0:0:0:0:
252,207,95753,2,0,L|233:157,1,50,10|2,0:0|0:0,0:0:0:0:
264,108,96215,6,0,P|213:80|154:84,1,99.9999999999999,4|10,0:0|0:0,0:0:0:0:
58,119,97138,1,0,0:0:0:0:
56,238,97599,2,0,P|75:264|99:274,1,50,10|2,0:0|0:0,0:0:0:0:
150,280,98061,2,0,P|188:263|216:195,1,99.9999999999999,0|10,0:0|0:0,0:0:0:0:
252,99,98984,1,0,0:0:0:0:
344,23,99445,2,0,P|368:46|377:74,1,50,10|2,0:0|0:0,0:0:0:0:
377,121,99907,6,0,P|380:182|405:229,1,99.9999999999999,0|10,0:0|0:0,0:0:0:0:
492,145,100830,1,0,0:0:0:0:
471,26,101291,2,0,P|437:22|399:22,1,50,10|2,0:0|0:0,0:0:0:0:
361,31,101753,2,0,P|323:51|253:56,1,99.9999999999999,0|10,0:0|0:0,0:0:0:0:
147,69,102676,2,0,L|112:116,1,50,8|0,0:0|0:0,0:0:0:0:
59,126,103138,2,0,L|24:173,1,50,8|2,0:0|0:0,0:0:0:0:
28,226,103599,5,4,0:0:0:0:
92,327,104061,2,0,P|125:296|147:235,1,99.9999999999999,8|0,0:0|0:0,0:0:0:0:
186,133,104984,2,0,P|216:109|246:100,1,50,10|2,0:0|0:0,0:0:0:0:
285,96,105445,2,0,B|324:128|324:128|327:164|305:186,1,99.9999999999999,0|10,0:0|0:0,0:0:0:0:
230,261,106368,2,0,P|235:291|302:325,1,99.9999999999999,0|10,0:0|0:0,0:0:0:0:
350,329,107061,1,2,0:0:0:0:
350,329,107291,6,0,L|409:236,1,99.9999999999999,0|12,0:0|0:0,0:0:0:0:
435,128,108215,1,0,0:0:0:0:
367,29,108676,2,0,P|338:29|305:41,1,50,10|2,0:0|0:0,0:0:0:0:
294,91,109138,2,0,P|277:134|239:174,1,99.9999999999999,0|10,0:0|0:0,0:0:0:0:
145,251,110061,2,0,P|110:224|100:201,1,50
115,160,110522,2,0,P|91:122|91:98,1,50,10|2,0:0|0:0,0:0:0:0:
110,61,110984,6,0,P|144:43|222:48,1,99.9999999999999,6|8,0:0|0:0,0:0:0:0:
262,57,111676,1,2,0:0:0:0:
262,57,111907,2,0,P|323:71|376:62,1,99.9999999999999,2|10,0:0|0:0,0:0:0:0:
417,49,112599,1,2,0:0:0:0:
417,49,112830,2,0,P|426:98|413:158,1,99.9999999999999,0|10,0:0|0:0,0:0:0:0:
355,249,113753,1,0,0:0:0:0:
242,291,114215,2,0,P|222:253|218:227,1,50,10|2,0:0|0:0,0:0:0:0:
209,187,114676,6,0,P|240:161|263:91,1,99.9999999999999,0|12,0:0|0:0,0:0:0:0:
186,15,115599,1,0,0:0:0:0:
73,56,116061,2,0,P|49:90|48:109,1,50,10|2,0:0|0:0,0:0:0:0:
62,155,116522,2,0,B|76:200|40:247|40:247|86:272|86:272|69:317|69:317|112:372|168:348|182:295,1,350,2|0,0:0|0:0,0:0:0:0:
196,236,118368,5,4,0:0:0:0:
256,192,118599,12,0,122061,0:0:0:0:
