osu file format v13

[General]
AudioFilename: Gresby Nash - Fan Forever.mp3
AudioLeadIn: 1500
PreviewTime: 28725
Countdown: 0
SampleSet: Normal
StackLeniency: 0.7
Mode: 0
LetterboxInBreaks: 0
WidescreenStoryboard: 0

[Editor]
DistanceSpacing: 1.1
BeatDivisor: 4
GridSize: 4
TimelineZoom: 1.7

[Metadata]
Title:Fan Forever
TitleUnicode:Fan Forever
Artist:Gresby Nash
ArtistUnicode:Gresby Nash
Creator:Nozhomi
Version:Insane
Source:
Tags:atmosphere piano all-stars 2014 league of legends lol paris okoratu
BeatmapID:423761
BeatmapSetID:175846

[Difficulty]
HPDrainRate:7
CircleSize:4
OverallDifficulty:8
ApproachRate:8.5
SliderMultiplier:2.4
SliderTickRate:1

[Events]
//Background and Video events
0,0,"bg.jpg",0,0
//Break Periods
//Storyboard Layer 0 (Background)
//Storyboard Layer 1 (Fail)
//Storyboard Layer 2 (Pass)
//Storyboard Layer 3 (Foreground)
//Storyboard Sound Samples
//Background Colour Transformations
3,100,0,0,0

[TimingPoints]
215,461.538461538462,4,2,1,30,1,0
215,-125,4,2,1,30,0,0
14984,-100,4,1,1,50,0,0
18330,-100,4,1,1,30,0,0
18445,-100,4,1,1,50,0,0
18561,-100,4,1,1,30,0,0
18676,-100,4,1,1,50,0,0
22022,-100,4,1,1,30,0,0
22138,-100,4,1,1,50,0,0
22253,-100,4,1,1,40,0,0
22368,-100,4,1,1,50,0,0
25715,-100,4,1,1,30,0,0
25830,-100,4,1,1,50,0,0
25945,-100,4,1,1,30,0,0
26061,-100,4,1,1,50,0,0
28715,-100,4,1,1,50,0,0
29753,-100,4,1,1,70,0,0
44522,-83.3333333333333,4,1,1,90,0,1
59291,-83.3333333333333,4,2,1,90,0,0
59407,-125,4,2,1,50,0,0
70368,-100,4,2,1,60,0,0
72676,-90.9090909090909,4,2,1,60,0,0
73138,-83.3333333333333,4,2,1,60,0,0
73599,-76.9230769230769,4,2,1,60,0,0
74061,-100,4,2,1,60,0,0
87445,-166.666666666667,4,2,1,60,0,0
88368,-100,4,1,1,70,0,0
90330,-100,4,1,1,50,0,0
90445,-100,4,1,1,70,0,0
92176,-100,4,1,1,50,0,0
92291,-100,4,1,1,70,0,0
94022,-100,4,1,1,60,0,0
94138,-100,4,1,1,70,0,0
103599,-83.3333333333333,4,1,1,90,0,1
116753,-83.3333333333333,4,1,1,85,0,1
116984,-83.3333333333333,4,1,1,80,0,1
117215,-83.3333333333333,4,1,1,75,0,1
117445,-83.3333333333333,4,1,1,70,0,1
117676,-83.3333333333333,4,1,1,65,0,1
117907,-83.3333333333333,4,1,1,60,0,1
118138,-83.3333333333333,4,1,1,55,0,1
118368,-100,4,2,1,20,0,0
121599,-100,4,2,1,5,0,0

[Colours]
Combo1 : 109,109,231
Combo2 : 226,90,90
Combo3 : 236,147,236
Combo4 : 227,136,91

[HitObjects]
340,284,215,6,0,P|380:320|434:338,1,96,0|0,0:0|0:0,0:0:0:0:
452,196,676,2,0,P|412:160|358:142,1,96,0|0,0:0|0:0,0:0:0:0:
340,284,1138,1,2,0:0:0:0:
262,361,1368,1,0,0:0:0:0:
184,284,1599,1,0,0:0:0:0:
262,206,1830,1,2,0:0:0:0:
340,284,2061,6,0,P|372:233|364:172,1,96,0|0,0:0|0:0,0:0:0:0:
224,119,2522,2,0,P|228:72|257:34,1,96,0|0,0:0|0:0,0:0:0:0:
340,116,2984,1,2,0:0:0:0:
418,37,3215,1,0,0:0:0:0:
496,115,3445,1,0,0:0:0:0:
417,192,3676,1,2,0:0:0:0:
304,152,3907,6,0,B|304:200|304:200|332:239,1,96,0|0,0:0|0:0,0:0:0:0:
445,279,4368,2,0,B|445:231|445:231|417:192,1,96,0|0,0:0|0:0,0:0:0:0:
316,125,4830,2,0,B|316:88|316:88|332:64|332:64|332:32,1,96,2|0,0:0|0:0,0:0:0:0:
180,33,5291,2,0,B|180:64|180:64|196:88|196:88|196:125,1,96,0|2,0:0|0:0,0:0:0:0:
256,288,5753,5,0,0:0:0:0:
158,191,5984,1,0,0:0:0:0:
256,94,6215,1,0,0:0:0:0:
352,192,6445,1,0,0:0:0:0:
186,260,6676,1,2,0:0:0:0:
324,260,6907,1,0,0:0:0:0:
324,122,7138,1,0,0:0:0:0:
186,122,7368,1,2,0:0:0:0:
79,52,7599,6,0,P|47:86|41:133,1,96,4|0,0:0|0:0,0:0:0:0:
148,204,8061,2,0,P|180:169|186:122,1,96,0|0,0:0|0:0,0:0:0:0:
80,52,8522,1,2,0:0:0:0:
60,176,8753,2,0,P|100:201|148:204,1,96,0|0,0:0|0:0,0:0:0:0:
252,128,9215,1,2,0:0:0:0:
344,220,9445,6,0,B|288:252|288:252|236:256,1,96,0|0,0:0|0:0,0:0:0:0:
252,128,9907,2,0,B|308:96|308:96|360:92,1,96,0|0,0:0|0:0,0:0:0:0:
456,188,10368,2,0,P|459:243|435:296,1,96,2|0,0:0|0:0,0:0:0:0:
262,220,10830,2,0,P|247:175|252:128,1,96,0|2,0:0|0:0,0:0:0:0:
396,124,11291,5,4,0:0:0:0:
416,10,11522,1,0,0:0:0:0:
508,80,11753,1,0,0:0:0:0:
304,40,11984,1,0,0:0:0:0:
396,260,12215,1,2,0:0:0:0:
508,304,12446,1,0,0:0:0:0:
416,376,12677,1,0,0:0:0:0:
304,344,12908,1,2,0:0:0:0:
236,199,13138,6,0,B|256:164|287:177|304:136,1,96,4|0,0:0|0:0,0:0:0:0:
248,24,13599,2,0,B|228:59|196:46|180:87,1,96,0|0,0:0|0:0,0:0:0:0:
304,135,14061,2,0,P|348:151|372:191,1,96,2|0,0:0|2:0,0:0:0:0:
282,274,14522,2,0,P|237:257|213:217,1,96,0|2,0:0|2:0,0:0:0:0:
216,188,14868,1,2,0:0:0:0:
224,152,14984,6,0,P|224:96|180:48,1,120,0|0,0:0|0:0,0:0:0:0:
120,191,15445,2,0,P|179:190|224:152,1,120,0|0,2:0|0:0,0:0:0:0:
300,60,15907,2,0,P|356:44|416:60,1,120,0|0,0:0|0:0,0:0:0:0:
356,180,16368,2,0,L|356:302,1,120,0|0,2:0|0:0,0:0:0:0:
248,356,16830,6,0,L|248:236,1,120
244,92,17291,1,0,2:0:0:0:
164,164,17522,1,0,0:0:0:0:
80,92,17753,1,0,0:0:0:0:
164,16,17984,1,0,0:0:0:0:
164,164,18215,2,0,L|104:192,1,60,2|0,2:0|0:0,0:0:0:0:
109,269,18445,2,0,L|164:244,1,60
31,272,18676,6,0,P|50:326|105:347,1,120,0|0,0:0|0:0,0:0:0:0:
241,238,19138,2,0,P|218:185|164:164,1,120,0|0,2:0|0:0,0:0:0:0:
8,122,19599,2,0,P|44:76|100:59,1,120
333,131,20061,2,0,P|299:82|245:59,1,120,0|0,2:0|0:0,0:0:0:0:
226,294,20522,6,0,B|278:342|278:342|326:354,1,120
422,258,20984,2,0,B|370:210|370:210|322:198,1,120,0|0,2:0|0:0,0:0:0:0:
204,168,21445,1,0,0:0:0:0:
226,294,21676,1,0,0:0:0:0:
380,300,21907,2,0,P|408:280|424:252,1,60,2|0,2:0|0:0,0:0:0:0:
322,198,22138,2,0,P|295:177|281:146,1,60
384,100,22368,5,0,0:0:0:0:
287,4,22599,1,0,0:0:0:0:
252,135,22830,1,0,2:0:0:0:
376,192,23061,1,0,0:0:0:0:
500,248,23291,1,0,0:0:0:0:
380,300,23522,1,0,0:0:0:0:
248,336,23753,2,0,P|192:360|124:348,1,120,0|0,2:0|0:0,0:0:0:0:
172,212,24215,6,0,P|141:165|156:80,1,120
288,100,24676,2,0,P|319:147|316:207,1,120,0|0,2:0|0:0,0:0:0:0:
248,336,25138,2,0,P|306:357|376:336,1,120,0|0,0:0|0:0,0:0:0:0:
428,208,25599,2,0,L|440:148,1,60,2|0,2:0|0:0,0:0:0:0:
364,144,25830,2,0,L|352:84,1,60
292,40,26061,6,0,L|172:84,1,120
143,230,26522,2,0,L|256:272,1,120,0|0,2:0|0:0,0:0:0:0:
368,228,26984,1,0,0:0:0:0:
256,162,27215,1,0,0:0:0:0:
256,288,27445,2,0,L|256:168,1,120,0|0,2:0|0:0,0:0:0:0:
312,56,27907,6,0,P|256:36|200:56,1,120
200,352,28368,2,0,P|256:372|312:352,1,120,0|0,2:0|0:0,0:0:0:0:
364,212,28830,1,8,0:0:0:0:
336,200,28945,1,8,0:0:0:0:
180,200,29176,1,8,0:0:0:0:
152,211,29291,1,8,0:0:0:0:
76,304,29522,2,0,P|96:320|128:332,1,60,8|8,0:0|0:0,0:0:0:0:
200,328,29753,6,0,L|304:264,1,120,4|0,0:0|0:0,0:0:0:0:
254,148,30215,2,0,L|152:211,1,120,8|0,0:0|0:0,0:0:0:0:
292,244,30676,2,0,L|396:180,1,120
448,52,31138,2,0,L|397:83,1,60,8|0,0:0|0:0,0:0:0:0:
280,72,31368,1,0,0:0:0:0:
397,84,31599,5,0,0:0:0:0:
456,192,31830,1,0,0:0:0:0:
336,192,32061,1,8,0:0:0:0:
256,280,32291,1,0,0:0:0:0:
176,192,32522,1,0,0:0:0:0:
56,192,32753,1,0,0:0:0:0:
108,84,32984,2,0,B|132:60|132:60|160:60,1,60,8|0,0:0|0:0,0:0:0:0:
232,68,33215,1,0,0:0:0:0:
404,88,33445,6,0,B|368:48|368:48|300:40,1,120
220,200,33907,2,0,P|288:192|324:144,1,120,8|0,0:0|0:0,0:0:0:0:
120,184,34368,2,0,B|111:256|178:297,1,120
328,328,34830,2,0,P|336:296|356:276,1,60,8|0,0:0|0:0,0:0:0:0:
412,232,35060,1,0,0:0:0:0:
220,200,35291,6,0,P|184:144|188:80,1,120
328,4,35753,2,0,P|360:47|364:112,1,120,8|0,0:0|0:0,0:0:0:0:
232,280,36215,2,0,P|291:287|348:268,1,120
224,140,36676,1,8,0:0:0:0:
224,140,36791,1,0,0:0:0:0:
224,140,36907,2,0,P|186:141|159:150,1,60,0|0,0:0|0:0,0:0:0:0:
112,220,37138,6,0,B|163:239|163:239|228:232,1,120,4|0,0:0|0:0,0:0:0:0:
400,160,37599,2,0,B|348:140|348:140|284:148,1,120,8|0,0:0|0:0,0:0:0:0:
152,320,38061,2,0,B|271:306,1,120
428,212,38522,1,8,0:0:0:0:
420,184,38637,1,0,0:0:0:0:
400,160,38752,1,0,0:0:0:0:
304,48,38984,6,0,P|256:88|244:144,1,120
208,336,39445,2,0,P|256:296|268:240,1,120,8|0,0:0|0:0,0:0:0:0:
256,100,39907,1,0,0:0:0:0:
172,192,40138,1,0,0:0:0:0:
340,192,40368,1,8,0:0:0:0:
372,176,40484,1,0,0:0:0:0:
404,160,40599,1,0,0:0:0:0:
340,324,40830,6,0,B|296:352|296:352|228:352,1,120
100,288,41291,2,0,B|128:244|128:244|128:176,1,120,8|0,0:0|0:0,0:0:0:0:
148,32,41753,2,0,P|80:52|52:92,1,120,0|0,0:0|0:0,0:0:0:0:
204,192,42215,1,8,0:0:0:0:
232,204,42330,1,0,0:0:0:0:
260,216,42445,1,0,0:0:0:0:
440,232,42676,6,0,P|372:212|344:172,1,120,0|0,0:0|0:0,0:0:0:0:
280,32,43138,1,8,0:0:0:0:
436,45,43368,1,0,0:0:0:0:
345,174,43599,1,0,0:0:0:0:
317,162,43714,1,0,0:0:0:0:
289,150,43829,1,0,0:0:0:0:
132,72,44061,2,0,B|104:76|104:76|76:92,1,60,8|0,0:0|0:0,0:0:0:0:
128,144,44291,2,0,B|152:156|152:156|184:160,1,60,0|0,0:0|0:0,0:0:0:0:
272,168,44522,6,0,P|336:216|340:288,1,143.999995605469,4|0,0:0|0:0,0:0:0:0:
176,316,44984,1,8,0:0:0:0:
176,316,45099,1,0,0:0:0:0:
176,316,45215,2,0,L|164:244,1,71.9999978027344
128,144,45445,2,0,L|99:215,1,71.9999978027344
60,280,45676,1,0,0:0:0:0:
60,108,45907,2,0,P|131:68|188:95,1,143.999995605469,8|0,0:0|0:0,0:0:0:0:
328,188,46368,6,0,B|378:207|378:207|464:181,1,143.999995605469,0|0,0:0|0:0,0:0:0:0:
354,47,46830,2,0,B|304:28|304:28|217:53,1,143.999995605469,8|0,0:0|0:0,0:0:0:0:
60,108,47291,1,0,0:0:0:0:
50,142,47406,1,0,0:0:0:0:
60,176,47522,1,0,0:0:0:0:
84,202,47638,1,0,0:0:0:0:
113,223,47753,2,0,B|173:263|173:263|233:223,1,143.999995605469,8|0,0:0|0:0,0:0:0:0:
354,47,48215,6,0,B|294:7|294:7|234:47,1,143.999995605469,0|0,0:0|0:0,0:0:0:0:
168,192,48676,2,0,L|132:256,1,71.9999978027344,8|0,0:0|0:0,0:0:0:0:
212,272,48907,2,0,L|247:209,1,71.9999978027344,0|0,0:0|0:0,0:0:0:0:
328,220,49138,2,0,L|292:282,1,71.9999978027344,0|0,0:0|0:0,0:0:0:0:
248,340,49368,1,0,0:0:0:0:
97,254,49599,2,0,P|74:192|109:118,1,143.999995605469,8|0,0:0|0:0,0:0:0:0:
253,36,50061,6,0,P|315:59|389:24,1,143.999995605469,0|0,0:0|0:0,0:0:0:0:
448,192,50522,1,8,0:0:0:0:
288,260,50753,2,0,P|280:294|287:329,2,71.9999978027344,0|0|0,0:0|0:0|0:0,0:0:0:0:
332,184,51099,2,0,P|356:157|367:123,2,71.9999978027344,0|0|0,0:0|0:0|0:0,0:0:0:0:
244,184,51445,2,0,P|232:150|208:123,1,71.9999978027344,8|0,0:0|0:0,0:0:0:0:
140,88,51676,1,0,0:0:0:0:
140,88,51791,1,0,0:0:0:0:
140,88,51907,6,0,P|70:89|36:148,1,143.999995605469,4|0,0:0|0:0,0:0:0:0:
200,204,52368,1,8,0:0:0:0:
372,228,52599,2,0,P|335:286|267:286,1,143.999995605469
231,270,52945,1,0,0:0:0:0:
205,242,53061,1,0,0:0:0:0:
200,204,53176,1,0,0:0:0:0:
212,168,53291,1,8,0:0:0:0:
296,16,53522,2,0,P|328:28|352:56,1,71.9999978027344
350,90,53753,6,0,P|334:159|364:224,1,143.999995605469
472,144,54215,1,8,0:0:0:0:
253,169,54445,2,0,P|189:197|163:262,1,143.999995605469
128,328,54791,1,0,0:0:0:0:
128,328,54907,2,0,P|155:339|197:328,1,71.9999978027344,0|0,0:0|0:0,0:0:0:0:
84,264,55138,2,0,P|59:282|49:323,1,71.9999978027344,8|0,0:0|0:0,0:0:0:0:
164,263,55368,2,0,P|160:232|129:203,1,71.9999978027344,0|0,0:0|0:0,0:0:0:0:
48,176,55599,6,0,P|14:115|42:51,1,143.999995605469
184,32,56061,1,8,0:0:0:0:
240,160,56291,2,0,P|299:185|376:176,1,143.999995605469
420,164,56638,1,0,0:0:0:0:
456,140,56753,1,0,0:0:0:0:
480,104,56868,1,0,0:0:0:0:
484,64,56984,1,8,0:0:0:0:
296,28,57215,1,0,0:0:0:0:
264,56,57330,1,0,0:0:0:0:
238,90,57445,6,0,P|246:124|240:160,1,71.9999978027344
300,200,57676,2,0,P|292:240|304:280,1,71.9999978027344,0|0,0:0|0:0,0:0:0:0:
328,352,57907,2,0,P|259:347|216:289,1,143.999995605469,4|0,3:0|0:0,0:0:0:0:
112,100,58368,1,8,0:0:0:0:
96,140,58484,1,8,0:0:0:0:
80,180,58599,1,8,0:0:0:0:
188,352,58830,2,8,P|257:368|327:352,1,143.999995605469
256,192,59291,5,6,0:0:0:0:
256,192,59407,12,2,62522,0:0:0:0:
89,201,62984,6,0,P|105:155|77:110,1,96
48,268,63445,2,0,P|93:280|137:264,1,96,0|0,0:0|0:0,0:0:0:0:
256,192,63907,1,2,0:0:0:0:
360,100,64138,1,0,0:0:0:0:
396,240,64368,2,0,B|422:284|422:284|460:308,1,96,0|2,0:0|0:0,0:0:0:0:
424,168,64830,6,0,B|397:123|397:123|360:100,1,96,0|0,0:0|0:0,0:0:0:0:
234,22,65291,2,0,B|204:56|208:112,1,96,0|0,0:0|0:0,0:0:0:0:
208,281,65753,1,2,0:0:0:0:
292,196,65984,1,0,0:0:0:0:
208,112,66215,1,0,0:0:0:0:
123,196,66445,1,2,0:0:0:0:
32,320,66676,6,0,B|0:288|0:256|0:256|0:233,1,96,0|0,0:0|0:0,0:0:0:0:
91,109,67138,2,0,B|123:141|123:173|123:173|123:195,1,96,0|0,0:0|0:0,0:0:0:0:
163,315,67599,1,2,0:0:0:0:
244,220,67830,1,0,0:0:0:0:
316,116,68061,2,0,P|360:99|405:114,1,96,0|2,0:0|0:0,0:0:0:0:
333,221,68522,6,0,P|288:236|244:220,1,96,0|0,0:0|0:0,0:0:0:0:
104,176,68984,2,0,P|86:219|103:263,1,96,0|0,0:0|0:0,0:0:0:0:
200,328,69445,1,2,0:0:0:0:
244,220,69676,1,0,0:0:0:0:
288,112,69907,2,0,B|340:80|340:80|380:88,1,96,0|2,0:0|0:0,0:0:0:0:
452,308,70368,6,0,P|392:304|352:232,1,120,2|0,0:0|0:0,0:0:0:0:
256,192,70830,1,0,0:0:0:0:
156,260,71061,2,0,P|118:304|60:308,1,120,2|0,0:0|0:0,0:0:0:0:
256,340,71522,1,0,0:0:0:0:
256,192,71753,2,0,L|256:72,1,120,2|0,0:0|0:0,0:0:0:0:
296,295,72215,6,0,P|331:277|352:244,2,80,0|0|0,1:0|1:0|1:0,1:0:0:0:
215,295,72676,2,0,P|166:258|147:208,1,88.000002685547,0|0,1:0|1:0,1:0:0:0:
256,192,72984,1,0,1:0:0:0:
336,88,73138,2,0,B|352:140|352:140|336:178,1,95.9999970703126,8|8,1:0|1:0,0:0:0:0:
256,296,73445,1,0,1:0:0:0:
178,185,73599,2,0,B|160:141|160:141|176:88,1,103.999995239258,8|8,1:0|1:0,0:0:0:0:
336,16,73907,1,8,1:0:0:0:
488,88,74061,6,0,B|480:136|480:136|440:200,1,120,14|0,0:0|0:0,0:0:0:0:
370,319,74522,2,0,B|312:292|312:292|256:296,1,120,8|0,0:0|0:0,0:0:0:0:
116,328,74984,2,0,P|60:304|32:248,1,120,8|0,0:0|0:0,0:0:0:0:
92,136,75445,2,0,P|148:160|176:216,1,120,8|0,0:0|0:0,0:0:0:0:
180,247,75791,1,0,0:0:0:0:
180,284,75907,6,0,P|244:256|260:200,1,120,10|0,0:0|0:0,0:0:0:0:
216,88,76368,2,0,P|259:43|312:23,1,120,8|0,0:0|0:0,0:0:0:0:
336,164,76830,2,0,P|372:208|432:224,1,120,8|0,0:0|0:0,0:0:0:0:
408,92,77291,2,0,B|353:58|336:112|289:78,1,120,8|0,0:0|0:0,0:0:0:0:
256,72,77638,1,0,0:0:0:0:
220,76,77753,6,0,B|172:108|160:54|105:88,1,120,10|0,0:0|0:0,0:0:0:0:
108,220,78215,2,0,B|108:280|108:280|78:332,1,120,8|0,0:0|0:0,0:0:0:0:
8,220,78676,2,0,B|8:160|8:160|40:104,1,120,8|0,0:0|0:0,0:0:0:0:
144,32,79138,1,8,0:0:0:0:
224,136,79368,1,0,0:0:0:0:
256,152,79484,1,0,0:0:0:0:
288,136,79599,5,10,0:0:0:0:
368,32,79830,1,0,0:0:0:0:
444,140,80061,2,0,P|464:196|428:248,1,120,8|0,0:0|0:0,0:0:0:0:
291,228,80522,2,0,P|271:282|300:331,1,120,8|0,0:0|0:0,0:0:0:0:
387,187,80984,2,0,P|352:141|294:127,1,120,8|0,0:0|0:0,0:0:0:0:
256,132,81330,1,0,0:0:0:0:
220,124,81445,6,0,P|163:138|125:194,1,120,10|0,0:0|0:0,0:0:0:0:
232,244,81907,1,8,0:0:0:0:
116,308,82138,1,0,0:0:0:0:
28,196,82368,2,0,P|48:139|96:148,1,120,8|0,0:0|0:0,0:0:0:0:
178,269,82830,2,0,P|195:321|249:311,1,120,8|0,0:0|0:0,0:0:0:0:
268,280,83176,1,0,0:0:0:0:
284,248,83291,5,10,0:0:0:0:
340,92,83522,1,0,0:0:0:0:
416,216,83753,2,0,P|460:156|472:112,1,120,8|0,0:0|0:0,0:0:0:0:
340,92,84215,2,0,P|296:152|284:196,1,120,8|0,0:0|0:0,0:0:0:0:
248,312,84676,2,0,B|184:320|184:320|160:264,1,120,8|0,0:0|0:0,0:0:0:0:
144,231,85022,1,0,0:0:0:0:
162,195,85138,6,0,B|184:144|184:144|248:152,1,120,10|0,0:0|0:0,0:0:0:0:
400,180,85599,1,8,0:0:0:0:
292,67,85830,1,0,0:0:0:0:
313,221,86061,1,8,0:0:0:0:
386,84,86291,2,0,P|448:96|488:152,1,120,0|8,0:0|0:0,0:0:0:0:
410,274,86753,1,0,0:0:0:0:
410,274,86868,1,0,0:0:0:0:
410,274,86984,6,0,P|348:262|308:206,1,120,10|0,0:0|0:0,0:0:0:0:
292,104,87445,2,0,P|235:190|315:220,1,215.999993408203,0|2,0:0|0:0,0:0:0:0:
440,180,88368,1,8,0:0:0:0:
471,51,88599,1,8,0:0:0:0:
471,51,88715,1,8,0:0:0:0:
471,51,88830,6,0,P|403:28|340:43,1,120,4|0,0:0|0:0,0:0:0:0:
224,92,89291,2,0,P|245:147|301:188,1,120,8|0,0:0|0:0,0:0:0:0:
440,180,89753,1,0,0:0:0:0:
336,80,89984,1,0,0:0:0:0:
264,248,90215,2,0,L|212:304,1,60,8|0,0:0|0:0,0:0:0:0:
176,344,90445,1,0,0:0:0:0:
56,332,90676,5,0,0:0:0:0:
52,212,90907,1,0,0:0:0:0:
160,260,91138,1,8,0:0:0:0:
256,188,91368,1,0,0:0:0:0:
352,260,91599,1,0,0:0:0:0:
460,212,91830,1,0,0:0:0:0:
456,332,92061,2,0,L|400:296,1,60,8|0,0:0|0:0,0:0:0:0:
352,260,92291,1,0,0:0:0:0:
356,116,92522,6,0,B|376:56|376:56|329:25,1,120
184,25,92984,2,0,B|136:56|136:56|156:116,1,120,8|0,0:0|0:0,0:0:0:0:
160,260,93445,1,0,0:0:0:0:
52,212,93676,1,0,0:0:0:0:
56,332,93907,2,0,L|112:296,1,60,8|0,0:0|0:0,0:0:0:0:
160,260,94138,1,0,0:0:0:0:
215,140,94368,5,0,0:0:0:0:
356,36,94599,1,0,0:0:0:0:
300,202,94830,1,8,0:0:0:0:
250,35,95061,1,0,0:0:0:0:
388,139,95291,1,0,0:0:0:0:
436,248,95522,2,0,B|448:276|448:276|432:328|387:334,1,120,0|8,0:0|0:0,0:0:0:0:
328,348,95868,1,0,0:0:0:0:
273,324,95984,1,0,0:0:0:0:
220,352,96099,1,0,0:0:0:0:
162,334,96215,6,0,B|118:328|102:276|102:276|114:248,1,120,4|0,0:0|0:0,0:0:0:0:
200,136,96676,2,0,P|252:160|308:136,1,120,8|0,0:0|0:0,0:0:0:0:
252,28,97138,2,0,P|200:4|144:28,1,120
200,136,97599,1,8,0:0:0:0:
228,124,97715,1,0,0:0:0:0:
256,112,97830,1,0,0:0:0:0:
428,56,98061,6,0,P|453:114|436:172,1,120,0|0,0:0|0:0,0:0:0:0:
379,302,98522,2,0,P|354:249|367:192,1,120,8|0,0:0|0:0,0:0:0:0:
428,56,98984,1,0,0:0:0:0:
368,192,99215,1,0,0:0:0:0:
308,80,99445,2,0,P|258:62|192:80,1,120,8|0,0:0|0:0,0:0:0:0:
188,132,99791,1,0,0:0:0:0:
184,184,99907,5,0,0:0:0:0:
328,184,100138,1,0,0:0:0:0:
320,328,100368,2,0,L|200:344,1,120,8|0,0:0|0:0,0:0:0:0:
80,268,100830,2,0,L|199:253,1,120
328,184,101291,2,0,B|308:128|308:128|252:108,1,120,8|0,0:0|0:0,0:0:0:0:
196,108,101638,1,0,0:0:0:0:
148,132,101753,6,0,B|168:188|168:188|226:209,1,120
328,184,102215,2,0,P|376:136|432:136,1,120,8|0,0:0|0:0,0:0:0:0:
428,264,102676,1,0,0:0:0:0:
428,264,102791,1,0,0:0:0:0:
428,264,102907,2,0,P|380:312|324:312,1,120,0|8,0:0|0:0,0:0:0:0:
72,264,103368,1,0,0:0:0:0:
72,264,103484,1,8,0:0:0:0:
72,264,103599,6,0,P|120:312|192:312,1,143.999995605469,4|0,0:0|0:0,0:0:0:0:
410,111,104061,2,0,P|391:81|360:64,1,71.9999978027344,8|0,0:0|0:0,0:0:0:0:
288,88,104291,2,0,P|307:118|338:135,1,71.9999978027344
301,14,104522,2,0,P|264:15|233:34,2,71.9999978027344
256,192,104984,1,8,0:0:0:0:
164,64,105215,1,0,0:0:0:0:
256,193,105445,6,0,P|258:264|220:324,1,143.999995605469
96,184,105907,1,8,0:0:0:0:
88,148,106022,1,0,0:0:0:0:
96,112,106137,1,0,0:0:0:0:
120,84,106253,1,0,0:0:0:0:
156,76,106368,1,0,0:0:0:0:
192,84,106484,1,0,0:0:0:0:
224,100,106599,1,0,0:0:0:0:
380,176,106830,2,0,P|446:200|512:176,1,143.999995605469,8|0,0:0|0:0,0:0:0:0:
356,101,107291,6,0,P|290:76|224:100,1,143.999995605469,0|0,0:0|0:0,0:0:0:0:
104,224,107753,1,8,0:0:0:0:
104,224,107868,1,0,0:0:0:0:
104,224,107984,2,0,P|107:183|91:151,1,71.9999978027344
27,110,108215,2,0,P|13:143|16:178,2,71.9999978027344
232,112,108676,2,0,P|268:176|260:252,1,143.999995605469,8|0,0:0|0:0,0:0:0:0:
164,384,109138,5,0,0:0:0:0:
104,224,109368,1,0,0:0:0:0:
268,244,109599,2,0,P|316:248|344:264,1,71.9999978027344,8|0,0:0|0:0,0:0:0:0:
368,332,109830,2,0,P|400:345|436:346,1,71.9999978027344
476,328,110061,1,0,0:0:0:0:
496,292,110176,1,0,0:0:0:0:
476,256,110291,2,0,B|464:208|464:208|428:172,1,71.9999978027344
348,172,110522,2,0,B|360:220|360:220|376:236,1,71.9999978027344,8|0,0:0|0:0,0:0:0:0:
412,120,110753,2,0,B|400:72|400:72|384:56,1,71.9999978027344,0|0,0:0|0:0,0:0:0:0:
316,16,110984,6,0,P|231:27|200:84,1,143.999995605469,4|0,0:0|0:0,0:0:0:0:
164,272,111445,1,8,0:0:0:0:
181,302,111560,1,0,0:0:0:0:
212,321,111675,1,0,0:0:0:0:
247,322,111791,1,0,0:0:0:0:
279,305,111906,1,0,0:0:0:0:
296,272,112022,1,0,0:0:0:0:
296,236,112138,1,0,0:0:0:0:
280,64,112368,2,0,B|244:112|244:112|156:136,1,143.999995605469,8|0,0:0|0:0,0:0:0:0:
88,288,112830,6,0,B|124:240|124:240|205:217,1,143.999995605469,0|0,0:0|0:0,0:0:0:0:
368,164,113291,1,8,0:0:0:0:
397,143,113406,1,0,0:0:0:0:
411,111,113521,1,0,0:0:0:0:
407,75,113637,1,0,0:0:0:0:
386,47,113752,1,0,0:0:0:0:
356,28,113868,1,0,0:0:0:0:
320,32,113984,1,0,0:0:0:0:
160,100,114215,2,0,B|96:128|96:128|29:99,1,143.999995605469,8|0,0:0|0:0,0:0:0:0:
96,260,114676,6,0,B|160:232|160:232|224:260,1,143.999995605469
396,308,115138,1,8,0:0:0:0:
396,308,115253,1,0,0:0:0:0:
396,308,115368,2,0,L|367:235,1,71.9999978027344
400,124,115599,2,0,L|428:196,1,71.9999978027344
456,272,115830,1,0,0:0:0:0:
304,356,116061,2,0,P|237:380|171:355,1,143.999995605469,8|0,0:0|0:0,0:0:0:0:
133,151,116522,5,8,0:0:0:0:
144,122,116637,1,0,0:0:0:0:
165,103,116752,1,0,0:0:0:0:
192,93,116868,1,0,0:0:0:0:
221,97,116983,1,0,0:0:0:0:
245,112,117098,1,0,0:0:0:0:
261,137,117214,1,0,0:0:0:0:
265,166,117329,1,0,0:0:0:0:
256,192,117445,5,8,0:0:0:0:
248,220,117561,1,8,0:0:0:0:
251,248,117676,1,8,0:0:0:0:
267,273,117792,1,0,0:0:0:0:
292,289,117907,1,0,0:0:0:0:
321,291,118022,1,0,0:0:0:0:
348,281,118138,1,0,0:0:0:0:
369,262,118253,1,0,0:0:0:0:
379,235,118368,5,4,0:0:0:0:
256,192,118484,12,0,122061,0:0:0:0:
