osu file format v9

[General]
AudioFilename: 01.Voyage Voyage.mp3
AudioLeadIn: 0
PreviewTime: 57799
Countdown: 1
SampleSet: Soft
StackLeniency: 0.3
Mode: 0
LetterboxInBreaks: 1

[Editor]
Bookmarks: 10357,27811,45266,58356,75811,93266
DistanceSpacing: 0.9
BeatDivisor: 2
GridSize: 8

[Metadata]
Title:Voyage Voyage
Artist:Gregorian
Creator:ShaggoN
Version:Normal
Source:Masters of Chant Chapter II
Tags:Desireless

[Difficulty]
HPDrainRate:1
CircleSize:3
OverallDifficulty:1
ApproachRate:1
SliderMultiplier:1.4
SliderTickRate:2

[Events]
//Background and Video events
0,0,"background.jpg"
//Break Periods
//Storyboard Layer 0 (Background)
//Storyboard Layer 1 (Fail)
//Storyboard Layer 2 (Pass)
//Storyboard Layer 3 (Foreground)
//Storyboard Sound Samples
Sample,57254,3,"soft-hitclap.wav",60
Sample,74708,3,"soft-hitclap.wav",60
Sample,92163,3,"soft-hitclap.wav",60
//Background Colour Transformations
3,100,2,64,12

[TimingPoints]
10357,545.454545454545,4,2,1,70,1,0
52356,-100,4,2,1,60,0,0
52902,-100,4,2,1,40,0,0
53447,-100,4,2,1,20,0,0
53720,-100,4,2,1,10,0,0
53993,-100,4,2,1,20,0,0
54538,-100,4,2,1,40,0,0
55084,-100,4,2,1,60,0,0
55629,-100,4,2,1,70,0,0
56175,-100,4,2,1,0,0,0
57811,-100,4,2,1,70,0,0
58356,-100,4,2,1,70,0,1
58425,-100,4,2,1,70,0,0
75811,-100,4,2,1,70,0,1
92175,-100,4,2,1,0,0,0

[Colours]
Combo1 : 170,187,198
Combo2 : 188,169,156
Combo3 : 152,92,39
SliderBorder : 59,22,5

[HitObjects]
176,136,10356,2,0,B|183:3|328:3|336:136,1,280,4|2
256,192,11993,1,0
176,248,12538,2,0,B|183:381|328:381|336:248,1,280,0|2
256,192,14175,1,0
176,136,14720,6,0,B|176:96|176:96|237:92|256:44,1,140
255,44,15811,1,2
336,136,16356,2,0,B|336:96|336:96|275:92|256:44,1,140
256,44,17447,1,0
256,142,17993,1,2
256,239,18538,6,0,B|256:311,2,70,0|0|4
256,142,19629,1,0
354,142,20175,2,0,B|330:190|346:238|346:238|274:238,1,140,2|0
255,238,20993,1,0
205,238,21266,2,0,B|164:238|164:238|180:190|156:142,1,140
256,142,22356,1,2
256,43,22902,6,0,B|344:43,2,70,0|0|4
168,96,23993,2,0,B|201:160|168:232,1,140,0|2
32,96,25084,1,0
32,96,25356,1,0
32,96,25629,2,0,B|-1:160|32:232,1,140
56,272,26447,1,0
88,312,26720,2,0,B|120:339|152:312,1,70,2|0
192,288,27266,2,0,B|224:261|256:288,1,70,2|0
296,312,27811,6,0,B|320:352|320:352|399:262|488:352|488:352|512:312,1,280,4|2
440,224,29447,1,0
512,136,29993,2,0,B|488:96|488:96|409:186|320:96|320:96|296:136,1,280,0|2
224,224,31629,1,0
152,312,32175,6,0,B|112:296|112:216|152:192,1,140
40,192,33266,1,2
151,192,33811,2,0,B|190:168|190:88|150:72,1,140
264,72,34902,1,0
264,184,35447,1,2
360,128,35993,6,0,B|432:128,2,70,0|0|4
360,240,37084,1,0
471,240,37629,2,0,B|400:240|491:358|383:358,1,140,2|0
360,352,38447,1,0
303,352,38720,2,0,B|232:352|342:234|215:234,1,140
144,240,39811,1,2
144,128,40356,6,0,B|72:128,2,70,0|0|4
255,127,41447,1,0
368,128,41993,2,0,B|401:192|368:264,1,140,2|0
312,262,42811,1,0
255,262,43084,2,0,B|222:191|255:127,1,140
312,32,44175,1,2
312,144,44720,6,0,B|312:216,1,70
267,258,45266,2,0,B|123:258,1,140,4|0
82,213,46084,1,0
126,168,46356,2,0,B|270:168,1,140,2|0
310,123,47175,1,0
265,78,47447,2,0,B|121:78,1,140
80,33,48266,1,0
32,80,48538,1,2
82,123,48811,1,0
34,170,49084,5,0
82,213,49356,1,0
126,257,49629,2,0,B|270:257,1,140,4|0
310,212,50447,1,0
265,167,50720,2,0,B|121:167,1,140,2|0
80,122,51538,1,0
124,77,51811,2,0,B|268:77,3,140,0|0|2|0
308,121,53720,5,0
352,76,53993,2,0,B|424:84,1,70,6|0
421,146,54538,2,0,B|351:153,1,70,2|0
351,217,55084,2,0,B|423:225,1,70,2|0
420,287,55629,2,0,B|350:294,1,70,2|0
256,192,56175,12,0,57266
256,56,57811,5,0
256,56,58084,1,0
256,56,58356,2,0,B|275:80|275:167|256:192,1,140,4|0
256,191,59447,1,8
257,326,59993,1,0
257,326,60266,1,0
257,326,60538,2,0,B|238:302|238:215|257:190,1,140
257,191,61629,1,8
383,191,62175,6,0,B|459:191,2,70,0|0|4
383,317,63266,1,0
257,316,63811,2,0,B|185:290|161:220,1,140,8|0
206,176,64629,1,0
250,131,64902,2,0,B|227:61|155:35,1,140
110,79,65720,1,0
65,123,65993,2,0,B|72:162|108:172,3,70,8|0|4|4
108,235,67084,6,0,B|221:263|214:76|334:107,1,280,4|8
456,224,68720,1,0
456,224,68993,1,0
456,224,69266,2,0,B|338:193|344:380|231:351,1,280,0|8
142,262,70902,6,0,B|115:260|111:300|83:294,2,70,0|0|4
198,148,71993,1,0
316,191,72538,1,8
337,68,73084,1,0
456,112,73629,2,0,B|540:269|395:360|271:366|208:232,1,420,0|4
200,224,75538,5,4
216,160,75811,2,0,B|191:88|119:63,1,140,4|0
296,160,76902,2,0,B|320:88|392:63,1,140,8|0
256,232,77993,2,0,B|284:280|228:320|256:368,2,140,0|0|8
192,64,79629,5,0
256,48,79902,1,0
320,64,80175,1,4
320,192,80720,2,0,B|272:220|232:163|184:191,1,140,0|8
320,320,81811,1,0
256,336,82084,1,0
192,320,82357,1,0
184,191,82902,2,0,B|232:163|272:220|320:192,1,140,0|8
409,102,83993,6,0,B|414:58|454:56,2,70,4|4|4
292,158,85084,1,0
216,56,85629,1,8
103,102,86175,2,0,B|97:58|57:56,2,70
200,184,87266,1,0
216,56,87811,6,0,B|376:130|282:286,1,280,8|0
200,184,89447,1,0
184,312,89993,2,0,B|23:237|117:81,1,280,8|0
200,184,91629,1,0
256,192,92175,12,4,93266
