osu file format v9

[General]
AudioFilename: 01.Voyage Voyage.mp3
AudioLeadIn: 0
PreviewTime: 57799
Countdown: 1
SampleSet: Soft
StackLeniency: 0.3
Mode: 0
LetterboxInBreaks: 1

[Editor]
Bookmarks: 10357,27811,45266,58356,75811,93266,106356,123811,141266,154356,171811,189266,206720,224175
DistanceSpacing: 1.5
BeatDivisor: 4
GridSize: 8

[Metadata]
Title:Voyage Voyage
Artist:Gregorian
Creator:ShaggoN
Version:Insane
Source:Masters of Chant Chapter II
Tags:Desireless

[Difficulty]
HPDrainRate:5
CircleSize:5
OverallDifficulty:6
ApproachRate:6
SliderMultiplier:2
SliderTickRate:2

[Events]
//Background and Video events
0,0,"background.jpg"
//Break Periods
2,93466,105306
//Storyboard Layer 0 (Background)
//Storyboard Layer 1 (Fail)
//Storyboard Layer 2 (Pass)
//Storyboard Layer 3 (Foreground)
//Storyboard Sound Samples
//Background Colour Transformations
3,100,2,64,12

[TimingPoints]
10357,545.454545454545,4,2,1,70,1,0
23993,-100,4,2,1,60,0,0
24538,-100,4,2,1,50,0,0
25084,-100,4,2,1,40,0,0
27266,-100,4,2,1,70,0,0
52356,-100,4,2,1,60,0,0
52902,-100,4,2,1,40,0,0
53447,-100,4,2,1,20,0,0
53720,-100,4,2,1,10,0,0
53993,-100,4,2,1,20,0,0
54538,-100,4,2,1,40,0,0
55084,-100,4,2,1,60,0,0
55629,-100,4,2,1,70,0,0
56175,-100,4,2,1,0,0,0
57811,-100,4,2,1,70,0,0
58356,-100,4,2,1,70,0,1
58425,-100,4,2,1,70,0,0
75811,-100,4,2,1,70,0,1
92175,-100,4,2,1,70,0,0
106356,-100,4,2,1,70,0,0
119993,-100,4,2,1,60,0,0
120538,-100,4,2,1,50,0,0
121084,-100,4,2,1,40,0,0
123266,-100,4,2,1,70,0,0
148356,-100,4,2,1,60,0,0
148902,-100,4,2,1,40,0,0
149447,-100,4,2,1,20,0,0
149720,-100,4,2,1,10,0,0
149993,-100,4,2,1,20,0,0
150538,-100,4,2,1,40,0,0
151084,-100,4,2,1,60,0,0
151629,-100,4,2,1,70,0,0
152175,-100,4,2,1,0,0,0
153811,-100,4,2,1,70,0,0
154356,-100,4,2,1,70,0,1
154493,-100,4,2,1,70,0,0
171811,-100,4,2,1,70,0,1
189129,-100,4,2,1,70,0,0
189266,-100,4,2,1,70,0,1
206584,-100,4,2,1,70,0,0
206720,-100,4,2,1,70,0,1
221993,-100,4,2,1,0,0,0
224175,-100,4,2,1,70,0,0

[Colours]
Combo1 : 170,187,198
Combo2 : 188,169,156
Combo3 : 152,92,39
SliderBorder : 59,22,5

[HitObjects]
374,99,10356,2,0,B|309:121|310:195,1,100,4|0
408,200,10902,1,0
344,280,11175,1,0
248,280,11447,1,2
184,200,11720,2,0,B|216:60|45:61,2,200
144,296,13084,1,0
224,352,13356,1,0
304,296,13629,2,0,B|351:236|406:382|480:296,1,200,2|0
424,216,14447,1,0
336,168,14720,6,0,B|303:215|246:220,1,100
248,120,15266,1,0
248,120,15538,1,0
240,24,15811,2,0,B|190:27|158:75,1,100,2|0
248,120,16356,1,0
248,120,16629,1,0
336,72,16902,2,0,B|383:57|430:91,2,100
376,160,17720,1,0
416,248,17993,2,0,B|397:295|344:320,1,100,2|0
256,288,18538,5,0
80,192,18811,1,4
256,96,19084,1,4
256,96,19356,1,0
288,192,19629,2,0,B|347:169|352:112,1,100
288,192,20175,2,0,B|366:231|343:343|307:361,2,200,2|0|0
208,248,21538,1,0
208,144,21811,2,0,B|162:115|152:64,1,100
96,152,22356,1,2
160,224,22629,1,0
160,328,22902,2,0,B|131:282|80:272,1,100
30,138,23447,5,4
30,242,23720,1,0
96,104,23993,1,0
96,280,24266,1,0
160,72,24538,1,2
160,312,24811,1,0
224,40,25084,1,0
224,344,25356,1,0
288,40,25629,5,0
288,344,25902,1,0
352,72,26175,1,0
352,312,26447,1,0
416,104,26720,1,2
416,280,26993,1,0
482,138,27266,1,0
482,242,27538,1,4
392,192,27811,6,0,B|354:149|296:144,1,100,4|0
392,192,28356,2,0,B|354:235|296:240,1,100
144,192,28902,2,0,B|177:198|209:187|244:192,2,100,2|0|0
216,128,29720,2,0,B|151:36|40:64,1,200
72,160,30538,1,0
40,256,30811,1,0
72,352,31084,2,0,B|122:333|144:288,1,100,2|0
217,221,31629,2,0,B|167:240|144:286,1,100
424,328,32175,6,0,B|380:283|312:280,1,100
478,147,32720,1,0
430,235,32993,1,0
424,56,33266,2,0,B|380:101|312:104,1,100,2|0
478,235,33811,1,0
430,147,34084,1,0
344,192,34356,2,0,B|246:245|160:168,1,200
136,264,35175,2,0,B|185:287|200:344,2,100,0|2|0
72,192,35993,5,0
256,96,36266,1,4
440,192,36538,1,4
440,192,36811,1,0
256,288,37084,2,0,B|296:315|297:377,1,100
256,288,37629,2,0,B|209:261|224:160|160:112,1,200,2|0
96,192,38447,1,0
64,335,38720,2,0,B|94:292|144:280,1,100
223,224,39266,2,0,B|194:268|144:280,1,100
367,280,39811,2,0,B|318:268|288:224,1,100,2|0
368,279,40357,2,0,B|418:292|447:335,1,100
216,152,40902,5,0
296,152,41175,1,0
296,232,41447,1,0
216,232,41720,1,0
256,104,41993,1,2
344,192,42266,1,0
256,280,42538,1,0
168,192,42811,1,0
320,128,43084,1,0
320,256,43357,1,0
192,256,43629,1,0
192,128,43902,1,0
192,256,44175,1,2
320,256,44447,1,0
256,64,44720,5,0
120,304,44993,1,4
392,304,45266,1,4
392,304,45538,1,0
180,129,45811,2,0,B|230:146|256:192,1,100
318,116,46357,2,0,B|302:166|256:192,1,100,2|0
331,254,46902,2,0,B|282:238|256:192,1,100
193,267,47447,2,0,B|210:218|256:192,1,100
248,88,47993,1,0
360,184,48266,1,0
264,296,48538,1,2
152,200,48811,1,0
256,192,49084,1,0
256,192,49357,1,4
255,192,49629,6,0,B|210:218|193:267,1,100,4|0
255,191,50175,2,0,B|230:146|180:129,1,100
256,191,50720,2,0,B|302:166|318:116,1,100,2|0
256,192,51266,2,0,B|282:238|331:254,2,100
256,296,52084,1,0
256,296,52357,2,0,B|213:321|160:320,1,100
256,296,52902,2,0,B|299:321|352:320,1,100,2|0
160,320,53447,1,0
351,320,53720,1,0
96,72,53993,6,0,B|121:119|194:129,1,100,2|0
416,312,54538,2,0,B|390:264|317:254,1,100,2|0
136,352,55084,2,0,B|183:326|193:253,1,100,2|0
376,32,55629,2,0,B|328:57|318:130,1,100,2|0
256,192,56175,12,0,57266
104,64,57811,5,0
64,160,58084,1,0
144,224,58357,2,0,B|193:238|248:224,1,100,4|0
424,224,58902,2,0,B|375:210|320:224,1,100
152,152,59447,2,0,B|260:138|320:32,1,200,8|0
376,120,60266,1,0
400,216,60538,2,0,B|392:266|416:328,1,100
312,296,61084,1,0
224,248,61357,1,0
136,200,61629,2,0,B|130:248|104:296,2,100,8|0|0
216,136,62447,1,0
296,72,62720,6,0,B|191:34|112:112,1,200,4|0
88,208,63538,1,0
176,264,63811,2,0,B|221:294|240:344,1,100,8|0
320,280,64357,1,0
416,320,64629,1,0
456,232,64902,2,0,B|408:204|384:144,1,100
488,128,65447,2,0,B|470:82|422:54,1,100
320,56,65993,1,8
224,96,66266,1,0
152,168,66538,1,0
152,272,66811,1,4
224,344,67084,5,4
224,344,67357,2,0,B|268:315|296:264,1,100
256,176,67902,1,0
352,152,68175,2,0,B|301:60|192:32,1,200,8|0
168,128,68993,1,0
96,192,69266,1,0
128,288,69538,2,0,B|178:297|224:328,1,100
320,312,70084,1,0
344,216,70357,2,0,B|389:248|448:248,1,100,8|0
424,144,70902,1,0
368,64,71175,1,0
288,128,71447,6,0,B|201:185|90:169,1,200,4|0
80,272,72266,1,0
176,296,72538,2,0,B|240:291|296:320,1,100,8|0
376,328,73084,1,0
416,240,73357,1,0
328,192,73629,1,0
256,120,73902,1,0
184,192,74175,1,0
256,264,74447,1,0
344,104,74720,1,8
168,104,74993,1,0
168,280,75266,1,0
344,280,75538,1,4
432,152,75811,6,0,B|446:92|498:59,1,100,4|0
360,136,76357,2,0,B|378:77|350:21,1,100
380,206,76902,2,0,B|292:258|184:256,1,200,8|0
88,248,77720,1,0
80,152,77993,2,0,B|65:92|13:59,1,100
152,136,78538,2,0,B|133:77|161:21,1,100
132,206,79084,2,0,B|220:258|328:256,1,200,8|0
256,184,79902,1,0
344,128,80175,6,0,B|378:73|448:48,1,100,4|0
477,141,80720,1,0
477,245,80993,1,0
424,328,81266,2,0,B|343:248|240:296,1,200,8|0
144,320,82084,1,0
48,328,82357,2,0,B|51:271|89:235,1,100
136,160,82902,1,0
176,255,83175,1,0
188,120,83447,1,8
244,252,83720,1,0
241,80,83993,1,0
313,249,84266,1,4
416,104,84538,6,0,B|320:151,1,100,4|0
232,184,85084,1,0
136,160,85357,1,0
64,88,85629,2,0,B|74:189|32:288,1,200,8|0
128,320,86447,1,0
320,248,86720,2,0,B|263:255|216:296,1,100
320,336,87266,2,0,B|377:329|424:288,1,100
408,200,87811,2,0,B|312:162|254:75,1,200,8|0
160,40,88629,1,0
136,136,88902,6,0,B|32:144,1,100,4|0
136,248,89447,2,0,B|32:240,1,100
200,120,89993,1,8
200,264,90266,1,0
264,128,90538,1,0
264,256,90811,1,0
376,136,91084,6,0,B|480:144,1,100
376,248,91629,2,0,B|480:240,1,100
312,120,92175,1,8
312,264,92447,1,0
248,128,92720,1,0
248,256,92993,1,0
248,256,93266,1,4
368,80,106356,6,0,B|324:51|272:40,2,100,4|0|0
368,184,107175,1,0
280,136,107447,2,0,B|181:99|88:152,1,200,2|0
152,232,108266,1,0
152,328,108538,1,0
248,304,108811,2,0,B|297:284|352:288,1,100
432,240,109356,1,0
344,192,109629,2,0,B|286:147|229:236|152:160,1,200,2|0
136,64,110447,1,0
208,128,110720,6,0,B|208:24,2,100
256,216,111538,1,0
304,128,111811,2,0,B|304:24,2,100,2|0|0
256,216,112629,1,0
256,320,112902,2,0,B|180:316|173:207|96:216,2,200,0|0|2
328,248,114266,1,0
400,320,114538,1,0
472,248,114811,1,4
400,176,115084,6,0,B|324:172|317:63|240:72,1,200,4|0
168,144,115902,1,0
72,176,116175,2,0,B|58:125|32:80,2,100,2|0|0
136,248,116993,1,0
80,336,117266,2,0,B|185:326|248:240,1,200
200,152,118084,1,0
264,80,118356,2,0,B|266:133|304:184,1,100,2|0
384,240,118902,2,0,B|382:187|344:136,1,100
482,138,119447,5,4
482,242,119720,1,0
416,104,119993,1,0
416,280,120266,1,0
352,72,120538,1,2
352,312,120811,1,0
288,40,121084,1,0
288,344,121356,1,0
224,40,121629,5,0
224,344,121902,1,0
160,72,122175,1,0
160,312,122447,1,0
96,104,122720,1,2
96,280,122993,1,0
30,138,123266,1,0
30,242,123538,1,4
120,192,123811,6,0,B|169:165|192:112,1,100,4|0
256,192,124356,2,0,B|305:219|328:272,1,100,0|0
392,192,124902,2,0,B|441:165|464:112,2,100,2|0|0
328,112,125720,1,0
264,32,125993,2,0,B|199:110|96:144,1,200
96,240,126811,1,0
192,264,127084,2,0,B|229:306|226:378,1,100,2|0
320,264,127629,2,0,B|282:306|285:378,2,100
256,192,128447,5,0
160,216,128720,1,0
64,192,128993,1,0
160,216,129266,1,2
256,192,129538,1,0
352,168,129811,1,0
448,192,130084,1,0
352,168,130356,2,0,B|256:120|160:168,2,200,0|0|2
336,264,131720,1,0
256,328,131993,1,0
176,264,132266,1,0
256,200,132538,6,0,B|262:135|312:96,2,100
352,176,133356,1,0
368,80,133629,2,0,B|279:24|176:56,1,200,2|0
168,152,134447,1,0
72,192,134720,1,0
72,192,134993,1,0
168,232,135266,1,0
224,312,135538,2,0,B|237:250|280:208,2,100,0|2|0
320,288,136356,1,0
408,248,136629,1,0
315,193,136902,5,0
258,249,137175,1,0
201,192,137447,1,0
258,136,137720,1,0
320,255,137993,1,2
196,255,138266,1,0
196,130,138538,1,0
320,130,138811,1,0
258,283,139084,1,0
167,192,139356,1,0
258,102,139629,1,0
348,193,139902,1,0
258,102,140175,1,2
167,192,140447,1,0
408,192,140720,5,0
168,55,140993,1,4
168,327,141266,1,4
248,264,141538,2,0,B|285:223|296:168,1,100
248,88,142084,1,0
344,48,142356,2,0,B|340:154|408:232,1,200,2|0
344,304,143175,1,0
256,256,143447,2,0,B|231:303|184:336,1,100
152,240,143993,2,0,B|101:256|44:247,1,100
112,144,144538,2,0,B|59:135|12:101,1,100,2|0
160,48,145084,5,0
352,48,145356,1,0
256,192,145629,1,4
256,352,145902,1,0
320,208,146175,1,0
320,328,146447,1,0
256,192,146720,1,2
256,352,146993,1,0
192,208,147266,1,0
192,328,147538,1,0
96,272,147811,6,0,B|92:219|64:176,1,100
152,128,148357,1,0
204,40,148629,1,0
304,40,148902,2,0,B|357:129|448:176,1,200,2|0
504,256,149720,1,0
416,312,149993,6,0,B|391:265|318:255,1,100,2|0
96,72,150538,2,0,B|122:120|195:130,1,100,2|0
376,32,151084,2,0,B|329:58|319:131,1,100,2|0
136,352,151629,2,0,B|184:327|194:254,1,100,2|0
256,192,152175,12,0,153266
256,48,153811,5,0
200,136,154084,1,0
256,216,154357,2,0,B|147:202|80:288,1,200,4|0
176,304,155175,1,0
272,304,155447,1,8
344,232,155720,2,0,B|375:186|424:152,1,100
328,104,156266,1,0
248,168,156538,2,0,B|248:112|224:56,2,100
152,128,157357,1,0
96,208,157629,2,0,B|192:251|211:363,1,200,8|0
288,304,158447,1,0
376,256,158720,6,0,B|409:214|464:192,1,100,4|0
472,96,159266,1,0
472,96,159538,1,0
328,208,159811,2,0,B|372:186|402:142,1,100,8|0
472,96,160357,1,0
472,96,160629,1,0
368,96,160902,2,0,B|328:67|304:18,1,100
144,96,161447,2,0,B|184:67|208:18,1,100
256,192,161993,2,0,B|248:152|266:126|256:88,2,100,8|0|0
256,336,162811,1,4
256,336,163084,6,0,B|229:289|184:256,1,100,4|0
89,261,163629,1,0
89,160,163902,1,0
189,160,164175,2,0,B|293:123|312:16,1,200,8|0
360,104,164993,1,0
440,48,165266,2,0,B|471:95|488:168,1,100
392,192,165811,2,0,B|406:246|400:320,1,100
304,272,166357,1,8
208,232,166629,1,0
112,272,166902,1,0
128,176,167175,1,0
224,136,167447,6,0,B|267:85|356:85|401:137,1,200,4|0
448,224,168266,1,0
352,248,168538,1,8
256,264,168811,2,0,B|241:297|279:327|256:360,2,100
184,192,169629,1,0
256,120,169902,1,0
328,192,170175,1,0
256,264,170447,1,0
168,104,170720,1,8
344,104,170993,1,0
344,280,171266,1,0
168,280,171538,1,4
80,152,171811,6,0,B|66:92|14:59,1,100,4|0
152,136,172357,2,0,B|134:77|162:21,1,100
132,206,172902,2,0,B|220:258|328:256,1,200,8|0
424,248,173720,1,0
432,152,173993,2,0,B|447:92|499:59,1,100
360,136,174538,2,0,B|379:77|351:21,1,100
380,206,175084,2,0,B|292:258|184:256,1,200,8|0
256,184,175902,1,0
160,152,176175,6,0,B|125:105|72:72,1,100,4|0
176,40,176720,1,0
256,104,176993,1,0
352,152,177266,2,0,B|387:105|440:72,2,100,8|0|0
408,232,178084,1,0
352,312,178357,2,0,B|316:277|304:224,1,100
256,32,178902,1,0
256,344,179175,1,0
160,72,179447,2,0,B|196:107|208:160,1,100,8|0
256,344,179993,1,0
256,32,180266,1,4
256,192,180538,6,0,B|285:147|328:105,2,100,4|0|0
184,264,181357,1,0
160,168,181629,2,0,B|79:167|123:29|32:32,1,200,8|0
144,48,182447,1,0
256,192,182720,2,0,B|226:147|183:105,2,100
328,264,183538,1,0
352,168,183811,2,0,B|433:167|389:29|480:32,1,200,8|0
368,48,184629,1,0
280,96,184902,6,0,B|222:87|168:96,2,100,4|0|0
256,192,185720,1,0
256,296,185993,2,0,B|352:345|448:296,1,200,8|0
448,192,186811,1,0
344,192,187084,1,0
256,104,187357,1,0
168,192,187629,1,0
256,280,187902,1,0
160,88,188175,1,8
352,88,188447,1,0
352,296,188720,1,0
160,296,188993,1,4
160,296,189129,1,0
160,296,189266,6,0,B|159:186|80:120,1,200,4|0
160,56,190084,1,0
256,88,190357,1,8
200,176,190629,1,0
256,264,190902,1,0
312,176,191175,1,0
352,296,191447,2,0,B|353:186|432:120,1,200,0|0
352,56,192266,1,0
256,88,192538,1,8
312,176,192811,1,0
256,264,193084,1,0
200,176,193357,1,0
152,88,193629,6,0,B|94:78|48:40,1,100,4|0
48,152,194175,1,0
128,216,194447,1,0
168,304,194720,2,0,B|112:305|40:328,2,100,8|0|0
256,352,195538,1,0
352,320,195811,1,0
400,232,196084,1,0
400,136,196357,1,0
352,48,196629,2,0,B|378:57|397:30|453:20,2,100,0|8|0
256,64,197447,5,0
80,192,197720,1,4
256,320,197993,1,4
256,320,198266,2,0,B|245:269|216:224,1,100
288,152,198811,1,0
320,56,199084,2,0,B|381:92|360:200|432:216,1,200,8|0
384,304,199902,1,0
288,336,200175,2,0,B|314:292|312:232,2,100
224,264,200993,1,0
144,128,201266,1,8
128,288,201538,1,0
232,176,201811,1,0
80,200,202084,1,0
232,176,202357,6,0,B|293:282|403:217,1,200,4|0
328,152,203175,1,0
392,80,203447,2,0,B|446:63|490:18,1,100,8|0
392,304,203993,2,0,B|446:320|490:365,1,100
120,80,204538,2,0,B|65:63|21:18,1,100
120,304,205084,2,0,B|65:320|21:365,1,100
256,56,205629,1,8
392,192,205902,1,0
256,328,206175,1,0
120,192,206447,1,4
120,192,206584,1,0
120,192,206720,6,0,B|174:178|216:128,1,100,4|0
304,160,207266,1,0
296,256,207538,1,0
384,296,207811,2,0,B|389:192|456:112,1,200,8|0
360,88,208629,1,0
256,88,208902,2,0,B|214:61|160:72,1,100
208,160,209447,1,0
216,256,209720,1,0
128,296,209993,2,0,B|123:192|56:112,1,200,8|0
152,88,210811,1,0
256,88,211084,6,0,B|298:61|352:72,1,100,4|0
320,168,211629,2,0,B|369:162|413:195,1,100,0|0
344,272,212175,1,8
256,320,212447,1,0
256,216,212720,1,0
168,272,212993,1,0
72,248,213266,2,0,B|85:191|72:144,1,100
384,96,213811,1,0
128,96,214084,1,0
440,248,214357,2,0,B|427:191|440:144,1,100,8|0
128,96,214902,1,0
384,96,215175,1,4
256,336,215447,6,0,B|236:280|192:232,1,100,4|0
256,112,215993,1,0
360,224,216266,1,0
256,336,216538,2,0,B|276:280|320:232,2,100,8|0|0
360,224,217357,1,0
256,112,217629,1,0
400,64,217902,1,0
256,112,218175,1,0
112,64,218447,1,0
256,112,218720,2,0,B|308:223|428:171,1,200,8|0
392,320,219538,1,0
120,320,219811,5,0
120,64,220084,1,0
392,64,220357,1,0
256,296,220629,1,0
152,192,220902,1,8
256,88,221175,1,0
360,192,221447,1,0
256,192,221720,1,0
256,192,221993,12,4,224175
