osu file format v11

[General]
AudioFilename: Greg Cooke - Circles [DNB] (1).mp3
AudioLeadIn: 0
PreviewTime: 44495
Countdown: 0
SampleSet: Normal
StackLeniency: 0.7
Mode: 1
LetterboxInBreaks: 1

[Editor]
Bookmarks: 77067
DistanceSpacing: 1
BeatDivisor: 2
GridSize: 8

[Metadata]
Title:Circles
TitleUnicode:Circles
Artist:Greg Cooke
ArtistUnicode:Greg Cooke
Creator:MrAwesomenism
Version:Taiko Hard
Source:
Tags:drum and bass circles baka tenshi balloon greg cooke dnb
BeatmapID:201878
BeatmapSetID:70164

[Difficulty]
HPDrainRate:2
CircleSize:2
OverallDifficulty:3
ApproachRate:3
SliderMultiplier:1
SliderTickRate:1

[Events]
//Background and Video events
0,0,"wallpaper-1036149.jpg"
//Break Periods
2,66295,75970
2,88238,89341
//Storyboard Layer 0 (Background)
//Storyboard Layer 1 (Fail)
//Storyboard Layer 2 (Pass)
//Storyboard Layer 3 (Foreground)
//Storyboard Sound Samples
//Background Colour Transformations

[TimingPoints]
22210,342.857142857143,4,1,1,80,1,0
23581,-100,4,1,1,80,0,0
23924,-100,4,1,1,80,0,0
131924,-100,4,2,1,80,0,0

[Colours]
Combo1 : 255,128,64
Combo2 : 255,128,0

[HitObjects]
256,192,38667,12,0,44152,0:0:0
256,192,44495,5,8,0:0:0
256,192,44838,1,0,0:0:0
256,192,45181,1,8,0:0:0
256,192,45524,1,0,0:0:0
256,192,45867,1,8,0:0:0
256,192,46381,1,0,0:0:0
256,192,46552,1,8,0:0:0
256,192,46895,5,0,0:0:0
256,192,47238,1,8,0:0:0
256,192,47581,1,0,0:0:0
256,192,47924,1,8,0:0:0
256,192,48267,1,0,0:0:0
256,192,48610,1,8,0:0:0
256,192,49124,1,0,0:0:0
256,192,49295,1,8,0:0:0
256,192,49467,1,0,0:0:0
256,192,49638,1,4,0:0:0
256,192,49981,5,8,0:0:0
256,192,50324,1,0,0:0:0
256,192,50667,1,8,0:0:0
256,192,51010,1,0,0:0:0
256,192,51352,1,8,0:0:0
256,192,51867,1,0,0:0:0
256,192,52038,1,8,0:0:0
256,192,52381,5,0,0:0:0
256,192,52724,1,8,0:0:0
256,192,53067,1,0,0:0:0
256,192,53410,1,8,0:0:0
256,192,53752,1,0,0:0:0
256,192,54095,1,8,0:0:0
256,192,54438,1,0,0:0:0
256,192,54610,1,0,0:0:0
256,192,54781,1,8,0:0:0
256,192,54952,1,0,0:0:0
256,192,55124,1,0,0:0:0
256,192,55467,5,8,0:0:0
256,192,55810,1,0,0:0:0
256,192,56152,1,8,0:0:0
256,192,56495,1,0,0:0:0
256,192,56838,1,8,0:0:0
256,192,57352,1,0,0:0:0
256,192,57524,1,8,0:0:0
256,192,57867,5,4,0:0:0
256,192,58210,1,8,0:0:0
256,192,58552,1,0,0:0:0
256,192,58895,1,8,0:0:0
256,192,59238,5,0,0:0:0
256,192,59581,1,8,0:0:0
256,192,60095,1,0,0:0:0
256,192,60267,1,8,0:0:0
256,192,60610,5,4,0:0:0
256,192,60953,1,8,0:0:0
256,192,61295,1,0,0:0:0
256,192,61638,1,8,0:0:0
256,192,61981,1,0,0:0:0
256,192,62324,1,8,0:0:0
256,192,62667,5,0,0:0:0
256,192,63010,1,8,0:0:0
256,192,63352,1,0,0:0:0
256,192,63695,1,8,0:0:0
256,192,64038,1,0,0:0:0
256,192,64381,5,8,0:0:0
256,192,64724,1,0,0:0:0
256,192,65067,1,0,0:0:0
256,192,65238,1,0,0:0:0
256,192,65410,1,8,0:0:0
256,192,65581,1,8,0:0:0
256,192,65752,1,8,0:0:0
256,192,66095,1,0,0:0:0
256,192,77410,5,8,0:0:0
256,192,77752,1,0,0:0:0
256,192,77924,1,0,0:0:0
256,192,78095,1,8,0:0:0
256,192,78438,1,0,0:0:0
256,192,78781,1,8,0:0:0
256,192,79124,1,0,0:0:0
256,192,79295,1,0,0:0:0
256,192,79467,1,8,0:0:0
256,192,79810,5,4,0:0:0
256,192,80152,1,8,0:0:0
256,192,80495,1,0,0:0:0
256,192,80667,1,0,0:0:0
256,192,80838,1,8,0:0:0
256,192,81181,1,0,0:0:0
256,192,81352,1,0,0:0:0
256,192,81524,1,8,0:0:0
256,192,81695,1,0,0:0:0
256,192,81867,1,0,0:0:0
256,192,82038,1,0,0:0:0
256,192,82210,1,8,0:0:0
256,192,82552,1,0,0:0:0
256,192,82895,5,8,0:0:0
256,192,83238,1,0,0:0:0
256,192,83410,1,0,0:0:0
256,192,83581,1,8,0:0:0
256,192,83924,1,0,0:0:0
256,192,84095,1,0,0:0:0
256,192,84267,1,8,0:0:0
256,192,84438,1,0,0:0:0
256,192,84610,1,0,0:0:0
256,192,84781,1,12,0:0:0
256,192,84952,1,12,0:0:0
256,192,85295,5,0,0:0:0
256,192,85381,1,0,0:0:0
256,192,85467,1,0,0:0:0
256,192,85552,1,0,0:0:0
256,192,85638,1,0,0:0:0
256,192,85724,1,0,0:0:0
256,192,85810,1,0,0:0:0
256,192,85895,1,0,0:0:0
256,192,85981,1,0,0:0:0
256,192,86067,1,0,0:0:0
256,192,86152,1,0,0:0:0
256,192,86238,1,0,0:0:0
256,192,86324,1,0,0:0:0
256,192,86410,1,0,0:0:0
256,192,86495,1,0,0:0:0
256,192,86581,1,0,0:0:0
256,192,86667,1,0,0:0:0
256,192,86752,1,0,0:0:0
256,192,86838,1,0,0:0:0
256,192,86924,1,0,0:0:0
256,192,87010,1,0,0:0:0
256,192,87095,1,0,0:0:0
256,192,87181,1,0,0:0:0
256,192,87267,1,0,0:0:0
256,192,87352,1,0,0:0:0
256,192,87438,1,0,0:0:0
256,192,87524,1,0,0:0:0
256,192,87610,1,0,0:0:0
256,192,87695,1,0,0:0:0
256,192,87781,1,0,0:0:0
256,192,87867,1,0,0:0:0
256,192,87952,1,0,0:0:0
256,192,88038,1,0,0:0:0
256,192,90781,5,0,0:0:0
256,192,91124,1,8,0:0:0
256,192,91467,1,0,0:0:0
256,192,91810,1,8,0:0:0
256,192,92152,1,0,0:0:0
256,192,92324,1,0,0:0:0
256,192,92495,1,8,0:0:0
256,192,92667,1,0,0:0:0
256,192,92838,1,0,0:0:0
256,192,93010,1,0,0:0:0
256,192,93181,1,8,0:0:0
256,192,93524,5,4,0:0:0
256,192,93867,1,8,0:0:0
256,192,94210,1,0,0:0:0
256,192,94552,1,8,0:0:0
256,192,94895,1,0,0:0:0
256,192,95067,1,0,0:0:0
256,192,95238,1,8,0:0:0
256,192,95410,1,0,0:0:0
256,192,95581,1,0,0:0:0
256,192,95752,1,0,0:0:0
256,192,95924,1,8,0:0:0
256,192,96267,5,0,0:0:0
256,192,96610,1,8,0:0:0
256,192,96781,1,0,0:0:0
256,192,97124,1,0,0:0:0
256,192,97295,1,8,0:0:0
256,192,97638,1,4,0:0:0
256,192,97981,1,12,0:0:0
256,192,98324,1,4,0:0:0
256,192,98667,1,12,0:0:0
256,192,99010,5,0,0:0:0
256,192,99352,1,8,0:0:0
256,192,99524,1,0,0:0:0
256,192,99695,1,0,0:0:0
256,192,99867,1,0,0:0:0
256,192,100038,1,8,0:0:0
256,192,100381,1,0,0:0:0
256,192,100724,1,8,0:0:0
256,192,101067,1,0,0:0:0
256,192,101410,1,8,0:0:0
256,192,101752,1,4,0:0:0
256,192,102095,5,8,0:0:0
256,192,102438,1,0,0:0:0
256,192,102610,1,0,0:0:0
256,192,102781,1,8,0:0:0
256,192,103124,5,0,0:0:0
256,192,103295,1,0,0:0:0
256,192,103467,1,8,0:0:0
256,192,103638,1,0,0:0:0
256,192,103810,1,0,0:0:0
256,192,103981,1,0,0:0:0
256,192,104152,1,8,0:0:0
256,192,104495,1,4,0:0:0
256,192,104838,5,8,0:0:0
256,192,105181,1,0,0:0:0
256,192,105352,1,0,0:0:0
256,192,105524,1,8,0:0:0
256,192,105867,1,0,0:0:0
256,192,106210,1,8,0:0:0
256,192,106552,1,0,0:0:0
256,192,106895,1,8,0:0:0
256,192,107238,12,0,108267,0:0:0
256,192,108610,12,0,109981,0:0:0
