osu file format v11

[General]
AudioFilename: Greg Cooke - Circles [DNB] (1).mp3
AudioLeadIn: 0
PreviewTime: 44495
Countdown: 0
SampleSet: Normal
StackLeniency: 0.7
Mode: 0
LetterboxInBreaks: 1
EpilepsyWarning: 1

[Editor]
Bookmarks: 77067
DistanceSpacing: 1
BeatDivisor: 1
GridSize: 8

[Metadata]
Title:Circles
TitleUnicode:Circles
Artist:Greg Cooke
ArtistUnicode:Greg Cooke
Creator:MrAwesomenism
Version:Normal
Source:
Tags:drum and bass circles baka tenshi balloon greg cooke dnb
BeatmapID:201824
BeatmapSetID:70164

[Difficulty]
HPDrainRate:2
CircleSize:3
OverallDifficulty:3
ApproachRate:3
SliderMultiplier:1
SliderTickRate:1

[Events]
//Background and Video events
0,0,"wallpaper-1036149.jpg"
//Break Periods
2,66295,75970
2,88238,89341
2,110181,119855
//Storyboard Layer 0 (Background)
//Storyboard Layer 1 (Fail)
//Storyboard Layer 2 (Pass)
//Storyboard Layer 3 (Foreground)
//Storyboard Sound Samples
//Background Colour Transformations
3,100,255,128,64

[TimingPoints]
22210,342.857142857143,4,1,1,80,1,0
23581,-100,4,1,1,80,0,0
23924,-100,4,1,1,80,0,0
44495,-100,4,1,1,80,0,1
131924,-100,4,2,1,80,0,0

[Colours]
Combo1 : 255,128,64
Combo2 : 255,128,0

[HitObjects]
256,192,38667,12,0,44152,0:0:0
96,144,44495,6,0,P|144:128|192:144,1,100,8|0,0:0|0:0,0:0:0
144,240,45181,2,0,P|96:256|48:240,2,100,8|0|8,0:0|0:0|0:0,0:0:0
240,288,46210,1,0,0:0:0
336,320,46552,1,8,0:0:0
384,224,46895,6,0,P|416:192|472:184,2,100,0|8|0,0:0|0:0|0:0,0:0:0
288,192,47924,1,8,0:0:0
344,112,48267,2,0,P|296:96|248:112,1,100,0|8,0:0|0:0,0:0:0
168,176,48952,2,0,P|112:176,2,50,0|0|8,0:0|0:0|0:0,0:0:0
248,112,49638,6,0,P|200:88|152:88,1,100,0|8,0:0|0:0,0:0:0
56,96,50324,2,0,P|48:40,2,50,0|0|8,0:0|0:0|0:0,0:0:0
32,192,51010,1,0,0:0:0
40,288,51352,2,0,P|88:272|128:232,1,100,8|0,0:0|0:0,0:0:0
184,320,52038,2,0,P|288:320,1,100,8|0,0:0|0:0,0:0:0
344,240,52724,5,8,0:0:0
432,192,53067,2,0,P|432:88,1,100,0|8,0:0|0:0,0:0:0
344,144,53752,1,0,0:0:0
256,192,54095,1,8,0:0:0
256,88,54438,2,0,P|256:32,4,50,0|0|8|0|0,0:0|0:0|0:0|0:0|0:0,0:0:0
168,136,55467,5,8,0:0:0
88,72,55810,2,0,P|64:120|80:184,1,100,0|8,0:0|0:0,0:0:0
144,232,56495,1,0,0:0:0
56,280,56838,1,8,0:0:0
144,328,57181,2,0,P|248:328,1,100,0|8,0:0|0:0,0:0:0
328,272,57867,6,0,P|360:320|400:336,1,100,0|8,0:0|0:0,0:0:0
424,240,58552,1,0,0:0:0
352,176,58895,2,0,P|296:192|248:192,1,100,8|0,0:0|0:0,0:0:0
288,96,59581,1,8,0:0:0
384,80,59924,2,0,P|432:64|480:80,2,100,0|8|0,0:0|0:0|0:0,0:0:0
288,96,60952,6,0,P|240:120|200:104,1,100,8|0,0:0|0:0,0:0:0
120,48,61638,1,0,0:0:0
48,128,61981,2,0,P|48:232,1,100
144,192,62667,1,0,0:0:0
128,288,63010,1,8,0:0:0
224,248,63352,6,0,P|232:304|216:352,1,100,0|8,0:0|0:0,0:0:0
312,336,64038,2,0,P|360:320|416:344,2,100,0|8|0,0:0|0:0|0:0,0:0:0
312,232,65067,1,8,0:0:0
408,200,65410,2,0,P|456:224,2,50,0|0|8,0:0|0:0|0:0,0:0:0
336,136,66095,1,0,0:0:0
312,144,77410,6,0,P|368:128|408:144,2,100,8|0|8,0:0|0:0|0:0,0:0:0
312,248,78438,2,0,P|208:248,1,100,0|8,0:0|0:0,0:0:0
176,328,79124,2,0,P|120:328,2,50,0|0|8,0:0|0:0|0:0,0:0:0
128,240,79810,5,0,0:0:0
176,152,80152,1,8,0:0:0
72,152,80495,2,0,P|16:152,2,50,0|0|8,0:0|0:0|0:0,0:0:0
120,72,81181,1,0,0:0:0
224,72,81524,1,8,0:0:0
296,144,81867,2,0,P|344:128|392:144,1,100
456,72,82552,5,0,0:0:0
480,168,82895,2,0,P|496:216|488:264,1,100,8|0,0:0|0:0,0:0:0
392,272,83581,1,8,0:0:0
448,352,83924,2,0,P|400:368|352:360,1,100,0|8,0:0|0:0,0:0:0
280,288,84610,2,0,P|224:288,2,50,0|0|8,0:0|0:0|0:0,0:0:0
256,192,85295,12,8,88038,0:0:0
72,72,90781,6,0,P|120:96|168:88,1,100,0|8,0:0|0:0,0:0:0
256,120,91467,2,0,P|256:176,2,50,0|0|8,0:0|0:0|0:0,0:0:0
240,24,92152,1,0,0:0:0
336,56,92495,1,8,0:0:0
360,152,92838,2,0,P|416:152,2,50,8|0|8,0:0|0:0|0:0,0:0:0
288,216,93524,5,8,0:0:0
384,248,93867,2,0,P|432:272|480:264,2,100,8|0|8,0:0|0:0|0:0,0:0:0
312,320,94895,2,0,P|264:304|216:320,1,100,0|8,0:0|0:0,0:0:0
136,264,95581,1,0,0:0:0
56,320,95924,1,8,0:0:0
48,224,96267,5,0,0:0:0
128,168,96610,2,0,P|176:152|224:168,2,100,8|0|8,0:0|0:0|0:0,0:0:0
40,128,97638,1,0,0:0:0
104,48,97981,1,8,0:0:0
200,48,98324,2,0,P|248:64|296:48,2,100,0|8|0,0:0|0:0|0:0,0:0:0
160,136,99352,5,8,0:0:0
248,184,99695,2,0,P|248:240,2,50,0|0|8,0:0|0:0|0:0,0:0:0
328,128,100381,2,0,P|376:152|416:136,1,100,0|8,0:0|0:0,0:0:0
488,208,101067,1,0,0:0:0
400,248,101410,1,8,0:0:0
480,304,101752,6,0,P|440:336|384:344,1,100,0|8,0:0|0:0,0:0:0
312,288,102438,2,0,P|312:344,2,50,0|0|8,0:0|0:0|0:0,0:0:0
256,200,103124,6,0,P|232:248|192:272,1,100,0|8,0:0|0:0,0:0:0
128,344,103810,2,0,P|112:296|72:264,1,100,8|8,0:0|0:0,0:0:0
144,192,104495,5,0,0:0:0
64,128,104838,1,8,0:0:0
128,56,105181,1,0,0:0:0
208,112,105524,1,8,0:0:0
272,32,105867,2,0,P|304:80|312:128,1,100,0|8,0:0|0:0,0:0:0
264,208,106552,2,0,P|312:224|360:208,1,100,0|8,0:0|0:0,0:0:0
256,192,107238,12,0,109981,0:0:0
136,144,121295,5,8,0:0:0
208,72,121638,1,0,0:0:0
232,168,121981,1,8,0:0:0
304,96,122324,2,0,P|328:152|328:192,1,100,0|8,0:0|0:0,0:0:0
416,136,123010,2,0,P|472:136,2,50,0|0|8,0:0|0:0|0:0,0:0:0
440,232,123695,6,0,P|440:336,1,100,0|8,0:0|0:0,0:0:0
352,288,124381,1,0,0:0:0
336,384,124724,1,8,0:0:0
256,320,125067,6,0,P|208:304|160:320,1,100,0|8,0:0|0:0,0:0:0
112,232,125752,2,0,P|72:264|56:312,2,100,0|8|0,0:0|0:0|0:0,0:0:0
200,192,126781,1,8,0:0:0
120,136,127124,2,0,P|80:104|80:104|80:56,1,100,0|8,0:0|0:0,0:0:0
184,56,127810,1,0,0:0:0
256,120,128152,1,8,0:0:0
328,48,128495,2,0,P|280:24,2,50,0|0|8,0:0|0:0|0:0,0:0:0
360,144,129181,6,0,P|408:128|456:144,1,100,0|8,0:0|0:0,0:0:0
408,232,129867,2,0,P|456:256|456:256|488:296,1,100,0|8,0:0|0:0,0:0:0
392,328,130552,1,0,0:0:0
312,264,130895,1,8,0:0:0
304,360,131238,2,0,P|248:360,4,50,0|0|8|0|4,0:0|0:0|0:0|0:0|0:0,0:0:0
