osu file format v5

[General]
AudioFilename: Greenday - Hitching A Ride.mp3
AudioLeadIn: 0
PreviewTime: -1
Countdown: 1
SampleSet: Normal
StackLeniency: 0.7
Mode: 0
LetterboxInBreaks: 1

[Metadata]
Title:Hitching A Ride
Artist:Greenday
Creator:Shippo-demon
Version:Normal
Source:
Tags:

[Difficulty]
HPDrainRate:3
CircleSize:5
OverallDifficulty:5
SliderMultiplier:1.4
SliderTickRate:1

[Events]
//Background and Video events
//Break Periods
2,46632,57306
2,91084,95812
//Storyboard Layer 0 (Background)
//Storyboard Layer 1 (Failing)
//Storyboard Layer 2 (Passing)
//Storyboard Layer 3 (Foreground)
//Storyboard Sound Samples
//Background Colour Transformations
3,100,0,0,13

[TimingPoints]
5000,365.853658536585,4,1,0,100,1

[Colours]
Combo1 : 255,173,0
Combo2 : 0,128,0
Combo3 : 51,93,255
Combo4 : 248,40,0

[HitObjects]
256,80,5731,1,0
257,149,6463,1,0
256,201,7195,1,0
257,261,7926,1,0
107,195,8658,5,0
176,194,9390,1,0
257,195,10121,1,0
356,195,10853,1,0
168,105,11585,5,0
240,168,12317,1,0
316,236,13048,1,0
389,282,13780,1,0
482,346,14512,5,0
473,266,15243,1,0
463,171,15975,1,0
427,73,16707,1,0
360,77,17439,1,0
307,146,18170,1,0
249,214,18902,1,0
180,288,19634,1,0
94,338,20365,1,0
48,265,21097,1,0
37,178,21829,1,0
40,86,22560,1,0
147,127,23292,5,0
147,127,23658,1,0
228,126,24756,1,0
228,126,25121,1,0
312,126,26219,1,0
312,126,26585,1,0
414,124,27682,1,0
414,124,28048,1,0
142,285,29146,5,0
142,285,29512,1,0
246,288,30609,1,0
246,288,30975,1,0
356,283,32073,1,0
366,193,32804,1,0
208,187,33536,1,0
208,187,33902,1,0
172,196,34268,1,0
132,211,34634,1,0
141,99,35091,5,0
212,99,35457,1,0
280,101,35823,1,0
345,103,36189,1,0
404,106,36554,1,0
458,107,36920,1,0
440,185,37195,2,4,B|403:276|141:128,1,315
113,140,38475,5,0
114,191,38841,1,0
116,245,39115,1,0
117,296,39481,1,0
116,344,39847,1,0
183,352,40121,2,0,B|382:353,1,175
105,190,40945,6,4,B|259:190,6,140,0|4|0|4|0|4|0
249,249,43140,6,4,B|403:249,6,140,0|4|0|4|0|4|0
251,200,46341,5,0
251,200,46432,1,0
256,190,58506,5,0
256,111,59237,1,0
257,33,60060,1,0
191,25,60792,1,0
110,24,61432,1,0
31,22,62164,1,0
25,110,62987,1,0
24,230,63719,1,0
26,358,64451,1,0
147,359,65182,1,0
266,359,65823,1,0
385,361,66554,1,0
487,359,67378,1,0
493,269,68109,1,0
492,168,68750,1,0
493,73,69115,1,0
405,70,69481,1,0
326,123,69847,1,0
247,179,70304,6,0,B|365:177|379:319|228:357|59:317|35:171|138:37|234:-31|352:26|358:132,1,700
129,339,73094,6,0,B|87:-164|198:51|477:133|247:204|236:231|11:154|316:355,1,787.5
135,53,76021,6,0,B|135:338|156:338|244:331|348:180|321:62|123:52,1,630
256,192,78536,12,0,81966
145,97,82698,5,0
354,96,83292,1,0
183,199,84527,2,0,B|330:201,5,140
256,192,88048,12,0,90884
128,70,96920,5,0
259,68,97652,1,0
408,69,98292,1,0
417,212,99115,1,0
420,244,99481,1,0
425,284,99847,1,0
322,320,100579,1,0
206,327,101310,1,0
68,323,102042,1,0
72,288,102408,1,0
71,244,102774,1,0
158,179,103597,1,0
253,179,104329,1,0
331,180,104969,1,0
256,192,106067,12,0,108628
255,192,108628,6,0,B|405:193,1,140
394,192,108993,2,0,B|394:44,2,140
394,193,109725,2,0,B|399:32|34:45,1,420
61,285,111463,6,0,B|176:170,1,140,0|0
160,186,111829,2,0,B|251:306,1,140
247,297,112195,2,0,B|364:195,1,140
354,207,112560,2,0,B|491:425|485:14,1,385
437,34,114207,6,0,B|289:29,1,140
297,29,114573,2,0,B|298:192,1,140
299,168,114939,2,0,B|449:169,1,140
443,169,115304,2,0,B|338:325|112:313,1,350
256,192,117225,12,0,119695
104,80,120106,5,0
221,84,120426,1,0
323,79,120746,1,0
438,77,121112,1,0
86,185,121478,1,0
200,179,121798,1,0
309,176,122164,1,0
401,178,122530,1,0
460,276,122896,1,0
364,297,123262,1,0
244,289,123628,1,0
130,284,123948,1,0
127,181,124314,1,0
258,173,125091,1,0
216,57,125868,1,0
301,64,126189,1,0
384,76,126600,1,0
449,91,126920,1,0
450,216,127286,1,0
453,320,127606,1,0
318,336,127972,1,0
189,323,128338,1,0
256,192,128612,12,0,131493
145,97,131951,5,0
354,96,132317,1,0
254,192,134329,1,0
183,199,135609,2,0,B|330:201,5,140
38,32,140182,6,0,B|349:31,2,297.5
92,106,143018,6,0,B|399:105,2,297.5
123,173,145945,6,0,B|420:173,2,280
179,310,148734,6,0,B|496:311,2,297.5
38,32,151478,6,0,B|349:31,2,297.5
92,106,154314,6,0,B|399:105,2,297.5
123,173,157241,6,0,B|420:173,2,280
179,310,160030,6,0,B|496:311,2,297.5
