osu file format v5

[General]
AudioFilename: Greendam.mp3
AudioLeadIn: 0
PreviewTime: 37525
Countdown: 0
SampleSet: Normal
StackLeniency: 0.7
Mode: 0
LetterboxInBreaks: 1

[Editor]
Bookmarks: 14129,37567,49942,61920,73567
DistanceSpacing: 0.800000011920929
BeatDivisor: 4
GridSize: 8

[Metadata]
Title:He Xie Ni Quan Jia
Artist:GreenDAM
Creator:zerosyn
Version:Normal
Source:
Tags:Vocaloid

[Difficulty]
HPDrainRate:4
CircleSize:4
OverallDifficulty:5
SliderMultiplier:1.5
SliderTickRate:1

[Events]
//Background and Video events
0,0,"Harmony or Die.jpg"
//Break Periods
//Storyboard Layer 0 (Background)
//Storyboard Layer 1 (Fail)
//Storyboard Layer 2 (Pass)
//Storyboard Layer 3 (Foreground)
//Storyboard Sound Samples
//Background Colour Transformations
3,100,163,162,255

[TimingPoints]
1900,375,4,1,0,80,1,0
61900,-100,4,1,0,80,0,1

[HitObjects]
64,208,14087,6,0,B|144:208,1,75
256,208,14650,2,0,B|256:128,1,75,0|0
376,128,15212,2,0,B|456:128,2,75,0|0|0
376,64,15775,1,8
376,192,16150,1,8
72,192,17087,6,0,B|72:272,1,75,0|0
184,312,17650,2,0,B|184:232,1,75,0|0
184,120,18212,1,0
240,120,18400,2,0,B|296:176,1,75,0|0
336,216,18775,2,0,B|456:96,1,150,8|8
168,240,20087,5,0
168,240,20275,1,0
80,152,20650,1,0
80,152,20837,1,0
56,264,21212,2,0,B|168:152,1,150,8|0
208,120,21775,1,8
288,208,22150,1,8
256,320,22525,6,0,B|176:320,2,75,0|0|8
352,248,23275,1,8
296,136,23650,1,8
176,160,24025,1,0
160,216,24212,2,0,B|208:296|288:264,1,150,8|0
328,224,24775,2,0,B|368:128|256:80,2,150,12|4|4
432,352,26087,6,0,B|488:296,1,75,0|8
392,176,26650,1,0
392,176,26837,1,8
304,256,27212,2,0,B|304:336,2,75
264,208,27775,1,8
216,248,27962,1,0
168,208,28150,2,0,B|96:152|24:208,1,150,8|0
136,336,29087,6,0,B|216:336,1,75,8|0
208,216,29650,1,8
144,216,29837,1,0
160,88,30212,2,0,B|256:40|272:152,1,150,8|0
320,104,30775,1,8
352,216,31150,1,8
208,320,32087,5,0
160,280,32275,1,8
72,192,32650,2,0,B|128:136,1,75,0|8
208,224,33212,1,0
256,184,33400,2,0,B|312:128,1,75,8|0
264,88,33775,2,0,B|208:32,1,75,8|0
168,80,34150,1,8
136,192,34525,5,0
176,232,34712,1,0
216,272,34900,2,0,B|328:160,2,150,8|8|8
216,152,36025,2,0,B|216:72,1,75,0|8
216,152,36587,2,0,B|216:232,1,75,0|8
328,192,37150,5,4
256,96,37525,5,0
256,96,37712,1,0
256,96,37900,1,8
184,192,38275,1,8
328,192,38650,1,8
256,288,39025,5,0
256,288,39212,1,0
256,288,39400,1,8
328,192,39775,1,8
184,192,40150,1,8
72,296,40525,5,0
72,296,40712,1,8
72,176,41087,2,0,B|72:96,1,75,0|10
192,104,41650,2,0,B|272:104,2,75,0|0|10
192,224,42400,6,0,B|256:288,1,75,0|8
296,240,42775,2,0,B|352:184,1,75,0|2
312,136,43150,2,0,B|256:80,1,75,0|2
208,120,43525,2,0,B|152:176,1,75,0|2
256,320,44275,6,0,B|368:208,1,150,0|8
360,96,45025,2,0,B|304:40,1,75,0|8
200,192,45775,1,0
112,112,46150,1,8
200,192,46525,5,0
256,192,46712,1,0
312,192,46900,1,10
128,192,47462,1,0
64,192,47650,1,10
256,192,48212,12,4,49525
256,256,49900,5,8
256,136,50275,1,10
256,256,50650,1,8
256,136,51025,1,10
256,256,51400,5,8
208,216,51587,1,0
160,176,51775,2,0,B|160:344,1,150,8|8
304,128,52900,6,0,B|456:128,1,150,8|10
456,248,53650,2,0,B|304:248,1,150,8|10
184,248,54400,6,0,B|120:184,1,75,8|0
152,136,54775,2,0,B|208:192,1,75,8|0
224,136,55150,1,8
256,240,55525,2,0,B|256:320,1,75,0|8
352,240,56087,6,0,B|440:240,2,75,0|0|8
352,176,56650,2,0,B|352:96,1,75,0|8
272,192,57212,1,0
232,152,57400,2,0,B|168:88,1,75,0|8
136,56,57775,2,0,B|24:168,1,150,0|8
216,312,58900,6,0,B|352:240,1,150,0|8
232,216,59650,2,0,B|88:168,1,150,0|8
136,136,60212,2,0,B|272:64,2,150,0|0|8
72,136,61150,5,12
128,240,61525,1,4
256,272,61900,5,8
256,144,62275,1,10
256,272,62650,1,8
256,144,63025,1,10
256,272,63400,5,8
304,232,63587,1,0
352,192,63775,2,0,B|352:344,1,150,8|8
96,312,64900,5,8
96,192,65275,1,10
216,192,65650,1,8
216,72,66025,1,10
304,152,66400,6,0,B|368:216,1,75,8|0
320,256,66775,2,0,B|264:312,1,75,8|0
216,272,67150,2,0,B|160:216,1,75,0|8
200,168,67525,2,0,B|256:112,1,75,0|8
256,232,68087,6,0,B|256:320,2,75,0|8|0
256,168,68650,2,0,B|256:88,1,75,0|8
312,200,69212,1,0
352,160,69400,2,0,B|408:104,1,75,0|8
448,64,69775,1,0
448,184,70150,2,0,B|448:344,1,150,8|0
328,344,70900,5,8
256,192,71275,1,8
184,344,71650,2,0,B|96:208,1,150,8|8
104,144,72212,2,0,B|200:24,1,150,2|10
248,72,72775,1,8
296,24,72962,1,10
336,80,73150,1,10
256,192,73525,5,4
