osu file format v5

[General]
AudioFilename: Greendam.mp3
AudioLeadIn: 0
PreviewTime: 37525
Countdown: 0
SampleSet: Normal
StackLeniency: 0.6
Mode: 0
LetterboxInBreaks: 1

[Editor]
Bookmarks: 14107,37567,49942,61920,73545
DistanceSpacing: 0.800000011920929
BeatDivisor: 4
GridSize: 8

[Metadata]
Title:He Xie Ni Quan Jia
Artist:GreenDAM
Creator:zerosyn
Version:Easy
Source:
Tags:Vocaloid

[Difficulty]
HPDrainRate:4
CircleSize:3
OverallDifficulty:5
SliderMultiplier:1
SliderTickRate:1

[Events]
//Background and Video events
0,0,"Harmony or Die.jpg"
//Break Periods
//Storyboard Layer 0 (Background)
//Storyboard Layer 1 (Fail)
//Storyboard Layer 2 (Pass)
//Storyboard Layer 3 (Foreground)
//Storyboard Sound Samples
//Background Colour Transformations
3,100,163,162,255

[TimingPoints]
1900,375,4,1,0,80,1,0
61900,-100,4,1,0,80,0,1

[HitObjects]
216,272,14275,5,0
296,272,14650,1,0
312,112,15400,1,0
256,56,15775,1,8
200,112,16150,1,8
408,232,17275,5,0
408,152,17650,1,0
256,96,18400,1,0
256,176,18775,1,8
256,256,19150,1,8
48,192,20275,5,0
48,112,20650,1,0
136,32,21212,2,0,B|240:32,1,100,0|0
272,32,21775,1,8
352,32,22150,1,8
256,192,22900,5,0
312,136,23275,1,0
368,80,23650,1,0
424,136,24025,2,0,B|472:184,1,50,0|8
400,224,24587,2,0,B|352:272,1,50,0|8
96,256,26087,6,0,B|176:256,1,50,0|8
192,192,26650,2,0,B|256:192,1,50,0|8
360,192,27400,1,8
360,112,27775,1,8
360,192,28150,1,8
160,192,29087,6,0,B|96:192,1,50,8|0
56,136,29650,2,0,B|56:64,1,50,8|0
256,56,30775,1,8
256,136,31150,1,8
384,288,32087,6,0,B|440:288,1,50,0|8
432,208,32650,2,0,B|376:208,1,50,0|8
256,192,33400,1,8
256,112,33775,1,8
256,192,34150,1,8
104,240,34900,6,0,B|104:136,2,100,8|8|8
184,144,36212,1,8
256,240,36775,1,8
256,32,37900,5,8
256,112,38275,1,8
256,192,38650,1,8
256,352,39400,5,8
256,272,39775,1,8
256,192,40150,1,8
352,120,40712,5,8
256,40,41275,1,10
112,120,42025,1,10
256,192,42775,5,10
256,192,43150,1,10
256,192,43525,1,10
360,312,44275,5,0
360,312,44650,1,8
360,192,45212,1,8
256,256,45775,1,0
256,176,46150,1,8
176,32,46900,5,10
336,32,47650,1,10
256,192,48212,12,4,49525
256,192,49900,6,0,B|256:88,1,100,0|10
256,192,50650,2,0,B|256:296,1,100,0|10
256,192,51400,2,8,B|368:192,2,100,0|8|8
96,192,52900,6,0,B|96:80,1,100,0|10
176,88,53650,2,0,B|176:192,1,100,0|10
256,192,54400,5,8
256,272,54775,1,0
336,272,55150,2,0,B|408:280|408:184|328:192,1,150,8|0
256,272,56275,5,0
256,192,56650,1,8
320,48,57400,1,0
256,0,57775,1,8
192,48,58150,1,8
256,192,58900,6,0,B|368:192,2,100,0|0|8
168,112,60212,2,8,B|168:8,1,100,0|8
256,16,60962,2,0,B|328:16,1,50,0|8
256,192,61900,5,8
256,112,62275,1,10
256,192,62650,1,8
256,272,63025,1,10
256,192,63400,2,0,B|152:192,2,100,8|8|8
408,232,64900,5,8
408,152,65275,1,10
408,232,65650,1,8
408,152,66025,1,10
352,96,66400,5,8
296,152,66775,1,8
352,208,67150,1,8
408,152,67525,1,8
296,40,68275,5,0
216,40,68650,1,8
88,136,69400,1,0
144,192,69775,1,8
200,136,70150,1,8
312,248,70900,5,8
368,192,71275,1,8
424,136,71650,1,8
344,112,72025,2,0,B|400:56,1,50,8|2
312,40,72587,2,0,B|240:40,3,50,10|8|10|10
256,120,73525,5,4
