osu file format v5

[General]
AudioFilename: green_day_-_the_simpsons_theme.mp3
AudioLeadIn: 0
PreviewTime: -1
Countdown: 1
SampleSet: Normal
StackLeniency: 0.7
Mode: 0
LetterboxInBreaks: 1

[Metadata]
Title:The Simpsons Theme
Artist:Green Day
Creator:Ax Di
Version:Easy
Source:
Tags:

[Difficulty]
HPDrainRate:5
CircleSize:5
OverallDifficulty:5
SliderMultiplier:1.4
SliderTickRate:1

[Events]
//Background and Video events
//Break Periods
//Storyboard Layer 0 (Background)
//Storyboard Layer 1 (Failing)
//Storyboard Layer 2 (Passing)
//Storyboard Layer 3 (Foreground)
//Storyboard Sound Samples
//Background Colour Transformations
3,100,163,162,255

[TimingPoints]
0,714.285714285714,4,1,0,100

[Colours]
Combo1 : 255,255,0
Combo2 : 255,255,0

[HitObjects]
60,71,2000,1,0
143,71,2666,1,0
211,69,4000,1,0
88,64,6666,5,0
154,55,7333,1,0
203,62,8000,1,0
105,74,9333,1,0
189,74,10666,1,0
262,73,11333,1,0
336,72,12000,1,0
93,98,13333,1,0
166,95,14666,1,0
240,95,15333,1,0
62,76,17333,1,0
179,92,17857,5,0
267,80,18571,1,0
346,79,20000,1,0
445,106,20714,1,0
433,163,22857,1,0
356,164,23571,1,0
217,161,25000,1,0
127,178,25714,1,0
53,57,28571,5,0
126,57,29285,1,0
204,61,30000,1,0
304,68,31428,1,0
386,71,32142,1,0
392,165,34285,1,0
347,227,35714,1,0
263,232,37142,1,0
261,187,40000,1,0
169,184,41428,1,0
262,89,42857,1,0
60,178,45714,5,0
144,178,47142,1,0
248,188,48571,1,0
50,53,51428,1,0
145,54,52857,1,0
252,56,54285,1,0
320,56,55714,1,0
404,62,57142,1,0
477,49,58571,1,0
470,88,60000,1,0
459,133,61428,1,0
60,52,62857,5,0
129,43,63571,1,0
178,54,64285,1,0
217,76,65000,1,0
282,105,65714,1,0
360,84,67142,1,0
324,124,68571,1,0
216,97,69285,1,0
164,145,70714,1,0
280,102,71428,1,0
392,88,72857,1,0
103,88,74285,1,0
203,88,75000,1,0
269,87,75714,1,0
104,95,77142,1,0
186,95,77857,1,0
280,66,80000,1,0
364,67,80714,1,0
