osu file format v12

[General]
AudioFilename: Sweet 16.mp3
AudioLeadIn: 2000
PreviewTime: 31347
Countdown: 0
SampleSet: Soft
StackLeniency: 0.7
Mode: 0
LetterboxInBreaks: 0
WidescreenStoryboard: 0

[Editor]
DistanceSpacing: 0.8
BeatDivisor: 4
GridSize: 4

[Metadata]
Title:Sweet 16
TitleUnicode:Sweet 16
Artist:Green Day
ArtistUnicode:Green Day
Creator:Zero__wind
Version:Hard
Source:
Tags:uno lally
BeatmapID:297378
BeatmapSetID:114964

[Difficulty]
HPDrainRate:6
CircleSize:4
OverallDifficulty:6
ApproachRate:7
SliderMultiplier:1.4
SliderTickRate:1

[Events]
//Background and Video events
0,0,"bg.jpg",0,0
//Break Periods
2,122306,145510
//Storyboard Layer 0 (Background)
//Storyboard Layer 1 (Fail)
//Storyboard Layer 2 (Pass)
//Storyboard Layer 3 (Foreground)
//Storyboard Sound Samples
//Background Colour Transformations
3,100,163,162,255

[TimingPoints]
587.952183991136,379.746835443038,4,2,1,70,1,0
1917,-100,4,2,1,50,0,0
2106,-100,4,2,1,70,0,0
3436,-100,4,2,1,50,0,0
3625,-100,4,2,1,70,0,0
6663,-100,4,2,1,50,0,0
18246,-100,4,2,1,60,0,0
30967,-100,4,2,1,70,0,1
42739,-100,4,2,1,50,0,0
43119,-100,4,2,1,70,0,1
52043,-100,4,2,1,50,0,1
52233,-100,4,2,1,70,0,1
54891,-100,4,2,1,50,0,1
55271,-100,4,2,1,70,0,1
58309,-100,4,2,1,70,0,0
59638,-100,4,2,1,50,0,0
59828,-100,4,2,1,70,0,0
64385,-100,4,2,1,50,0,0
75967,-100,4,2,1,60,0,0
88689,-100,4,2,1,70,0,1
100461,-100,4,2,1,50,0,0
100841,-100,4,2,1,70,0,1
109765,-100,4,2,1,50,0,1
109955,-100,4,2,1,70,0,1
112613,-100,4,2,1,50,0,1
112993,-100,4,2,1,70,0,1
116030,-100,4,2,1,70,0,0
117360,-100,4,2,1,50,0,0
117549,-100,4,2,1,70,0,0
118879,-100,4,2,1,50,0,0
119068,-100,4,2,1,70,0,0
146410,-100,4,2,1,70,0,1
158182,-100,4,2,1,70,0,0
158562,-100,4,2,1,70,0,1
167486,-100,4,2,1,50,0,1
167676,-100,4,2,1,70,0,1
170334,-100,4,2,1,50,0,1
170714,-100,4,2,1,70,0,1
173752,-100,4,2,1,70,0,0
175081,-100,4,2,1,50,0,0
175271,-100,4,2,1,70,0,0
176600,-100,4,2,1,50,0,0
176790,-100,4,2,1,70,0,0
179163,-100,4,2,1,50,0,0
180777,-100,4,2,1,70,0,0

[Colours]
Combo1 : 226,220,24
Combo2 : 224,121,140
Combo3 : 122,195,212
Combo4 : 178,64,157
Combo5 : 238,117,110
Combo6 : 118,202,70
Combo7 : 236,226,236
Combo8 : 255,0,128

[HitObjects]
332,112,587,2,0,L|396:144,2,70,6|2|8,0:0|0:0|0:0,0:0:0:0:
248,36,1157,2,0,P|176:52|144:108,1,140,6|6,0:0|0:0,0:0:0:0:
200,204,1727,1,8,0:0:0:0:
152,272,1917,1,8,0:0:0:0:
152,272,2012,1,8,0:0:0:0:
152,272,2106,6,0,L|84:284,2,70,6|2|8,0:0|0:0|0:0,0:0:0:0:
264,276,2676,2,0,P|302:217|288:148,1,140,6|6,0:0|0:0,0:0:0:0:
396,192,3246,2,0,L|464:208,1,70,8|8,0:0|0:0,0:0:0:0:
479,232,3530,1,8,0:0:0:0:
487,259,3625,6,0,L|491:339,1,70,6|2,0:0|0:0,0:0:0:0:
380,344,4005,1,8,0:0:0:0:
380,344,4195,2,0,P|316:374|252:352,1,140,6|6,0:0|0:0,0:0:0:0:
240,240,4765,1,8,0:0:0:0:
313,285,4955,5,6,0:0:0:0:
160,356,5334,2,0,L|88:364,1,70,6|8,0:0|0:0,0:0:0:0:
0,256,5714,1,2,0:0:0:0:
0,256,5904,2,0,L|139:240,1,140,6|8,0:0|0:0,0:0:0:0:
324,32,6663,5,6,0:0:0:0:
160,68,7043,1,8,0:0:0:0:
92,20,7233,1,2,0:0:0:0:
140,184,7613,1,2,0:0:0:0:
208,136,7803,1,8,0:0:0:0:
40,120,8182,6,0,P|8:192|28:248,1,140,6|8,0:0|0:0,0:0:0:0:
104,280,8752,1,2,0:0:0:0:
256,360,9132,1,2,0:0:0:0:
312,296,9322,1,8,0:0:0:0:
296,128,9701,5,6,0:0:0:0:
172,240,10081,1,8,0:0:0:0:
240,287,10271,1,2,0:0:0:0:
388,368,10651,1,2,0:0:0:0:
448,308,10841,1,8,0:0:0:0:
508,148,11220,6,0,P|492:72|444:40,1,140,6|8,0:0|0:0,0:0:0:0:
360,60,11790,1,2,0:0:0:0:
204,116,12170,1,2,0:0:0:0:
136,52,12360,1,8,0:0:0:0:
360,60,12739,5,6,0:0:0:0:
368,228,13119,1,8,0:0:0:0:
420,292,13309,2,0,P|384:356|320:368,1,140,2|2,0:0|0:0,0:0:0:0:
252,324,13879,1,8,0:0:0:0:
132,208,14258,5,4,0:0:0:0:
12,328,14638,1,8,0:0:0:0:
88,367,14828,2,0,P|160:335|176:279,1,140,2|2,0:0|0:0,0:0:0:0:
132,208,15398,1,8,0:0:0:0:
24,80,15777,6,0,L|164:64,1,140,6|8,0:0|0:0,0:0:0:0:
264,12,16347,2,0,P|332:32|376:88,1,140,2|2,0:0|0:0,0:0:0:0:
372,168,16917,1,8,0:0:0:0:
212,120,17296,6,0,P|190:153|184:184,1,70,6|2,0:0|0:0,0:0:0:0:
214,291,17676,2,0,P|190:316|158:330,1,70,8|2,0:0|0:0,0:0:0:0:
294,342,18056,2,0,L|355:307,1,70,2|12,0:0|0:0,0:0:0:0:
418,155,18436,1,4,0:0:0:0:
356,308,18815,6,0,P|395:363|464:356,1,140,6|8,0:0|0:0,0:0:0:0:
472,244,19385,2,0,P|512:184|504:120,1,140,2|2,0:0|0:0,0:0:0:0:
444,24,19955,2,0,L|372:40,1,70,8|0,0:0|0:0,0:0:0:0:
284,104,20334,1,2,0:0:0:0:
224,44,20524,1,2,0:0:0:0:
306,23,20714,1,8,0:0:0:0:
373,113,20904,2,0,P|334:182|276:192,1,140,2|2,0:0|0:0,0:0:0:0:
316,300,21474,2,0,L|380:332,1,70,8|0,0:0|0:0,0:0:0:0:
212,360,21853,6,0,P|158:308|168:244,1,140,6|8,0:0|0:0,0:0:0:0:
104,152,22423,2,0,P|85:224|25:248,1,140,2|0,0:0|0:0,0:0:0:0:
4,360,22993,2,0,L|76:352,1,70,8|0,0:0|0:0,0:0:0:0:
156,276,23372,1,2,0:0:0:0:
224,324,23562,1,2,0:0:0:0:
296,284,23752,1,8,0:0:0:0:
380,360,23942,2,0,P|436:304|436:244,1,140,2|2,0:0|0:0,0:0:0:0:
360,164,24512,2,0,L|292:176,1,70,8|0,0:0|0:0,0:0:0:0:
144,96,24891,6,0,L|283:71,1,140,6|8,0:0|0:0,0:0:0:0:
396,72,25461,2,0,P|448:128|448:188,1,140,2|2,0:0|0:0,0:0:0:0:
376,276,26030,2,0,L|312:248,1,70,8|0,0:0|0:0,0:0:0:0:
212,192,26410,1,2,0:0:0:0:
160,260,26600,1,2,0:0:0:0:
212,328,26790,1,8,0:0:0:0:
100,332,26980,2,0,P|65:266|89:208,1,140,2|2,0:0|0:0,0:0:0:0:
171,136,27549,2,0,L|212:192,1,70,8|0,0:0|0:0,0:0:0:0:
68,100,27929,6,0,P|102:38|168:20,1,140,6|8,0:0|0:0,0:0:0:0:
264,76,28499,2,0,P|338:73|362:18,1,140,2|2,0:0|0:0,0:0:0:0:
264,76,29068,2,0,L|320:144,1,70,8|0,0:0|0:0,0:0:0:0:
388,280,29448,6,0,L|415:208,1,70,6|2,0:0|0:0,0:0:0:0:
272,308,29828,2,0,L|298:372,1,70,8|2,0:0|0:0,0:0:0:0:
222,198,30208,2,0,L|154:186,2,70,2|12|12,0:0|0:0|0:0,0:0:0:0:
499,151,30967,6,0,P|507:77|464:27,1,140,6|8,0:0|0:0,0:0:0:0:
356,16,31537,1,0,0:0:0:0:
268,84,31727,2,0,P|232:84|200:72,2,70,2|2|8,0:0|0:0|0:0,0:0:0:0:
316,216,32296,2,0,P|272:272|206:276,1,140,6|2,0:0|0:0,0:0:0:0:
100,248,32866,2,0,P|121:218|120:184,1,70,8|0,0:0|0:0,0:0:0:0:
233,194,33246,1,2,0:0:0:0:
267,273,33436,1,0,0:0:0:0:
328,332,33625,2,0,L|400:328,1,70,8|0,0:0|0:0,0:0:0:0:
267,273,34005,6,0,P|206:325|148:328,1,140,6|8,0:0|0:0,0:0:0:0:
41,364,34575,1,0,0:0:0:0:
65,253,34765,2,0,P|96:225|108:192,2,70,2|2|8,0:0|0:0|0:0,0:0:0:0:
40,116,35334,2,0,P|107:86|164:112,1,140,6|2,0:0|0:0,0:0:0:0:
248,188,35904,2,0,P|289:181|316:160,1,70,8|0,0:0|0:0,0:0:0:0:
400,96,36284,1,2,0:0:0:0:
356,20,36474,1,2,0:0:0:0:
272,32,36663,2,0,L|256:104,1,70,8|0,0:0|0:0,0:0:0:0:
375,177,37043,6,0,P|440:196|496:156,1,140,6|8,0:0|0:0,0:0:0:0:
400,96,37613,1,0,0:0:0:0:
375,177,37803,1,2,0:0:0:0:
376,260,37993,2,0,L|424:320,1,70,2|8,0:0|0:0,0:0:0:0:
292,372,38372,2,0,P|216:368|176:320,1,140,6|2,0:0|0:0,0:0:0:0:
222,220,38942,1,8,0:0:0:0:
176,322,39132,2,0,L|40:360,1,140,2|2,0:0|0:0,0:0:0:0:
16,248,39701,2,0,P|52:244|88:256,1,70,8|0,0:0|0:0,0:0:0:0:
221,220,40081,6,0,P|282:188|295:122,1,140,6|8,0:0|0:0,0:0:0:0:
250,20,40651,1,0,0:0:0:0:
166,92,40841,2,0,L|219:139,2,70,2|2|8,0:0|0:0|0:0,0:0:0:0:
306,84,41410,2,0,P|325:148|295:211,1,140,6|2,0:0|0:0,0:0:0:0:
202,148,41980,1,8,0:0:0:0:
294,211,42170,2,0,P|365:230|414:192,1,140,6|2,0:0|0:0,0:0:0:0:
508,252,42739,1,8,0:0:0:0:
508,280,42834,1,8,0:0:0:0:
508,308,42929,1,8,0:0:0:0:
508,336,43024,1,8,0:0:0:0:
508,364,43119,6,0,P|439:378|383:342,1,140,6|8,0:0|0:0,0:0:0:0:
276,308,43689,1,0,0:0:0:0:
172,352,43879,2,0,P|131:347|104:332,2,70,2|2|8,0:0|0:0|0:0,0:0:0:0:
186,240,44448,2,0,P|212:172|180:116,1,140,6|2,0:0|0:0,0:0:0:0:
72,144,45018,2,0,L|134:178,1,70,8|0,0:0|0:0,0:0:0:0:
80,276,45398,1,2,0:0:0:0:
24,213,45587,1,2,0:0:0:0:
72,144,45777,2,0,L|100:80,1,70,8|0,0:0|0:0,0:0:0:0:
224,16,46157,6,0,P|208:84|224:152,1,140,6|8,0:0|0:0,0:0:0:0:
300,236,46727,1,0,0:0:0:0:
352,136,46917,2,0,L|423:108,2,70,2|2|8,0:0|0:0|0:0,0:0:0:0:
412,8,47486,2,0,P|481:25|511:83,1,140,6|2,0:0|0:0,0:0:0:0:
472,188,48056,2,0,P|477:235|492:264,1,70,8|2,0:0|0:0,0:0:0:0:
408,336,48436,5,2,0:0:0:0:
268,322,48625,1,12,0:0:0:0:
348,206,48815,1,12,0:0:0:0:
120,32,49195,6,0,P|58:79|46:143,1,140,6|8,0:0|0:0,0:0:0:0:
96,240,49765,1,0,0:0:0:0:
168,328,49955,2,0,P|196:300|208:268,2,70,2|2|8,0:0|0:0|0:0,0:0:0:0:
28,304,50524,2,0,P|0:228|20:176,1,140,6|2,0:0|0:0,0:0:0:0:
128,144,51094,1,8,0:0:0:0:
236,172,51284,2,0,P|306:145|320:84,1,140,2|2,0:0|0:0,0:0:0:0:
232,16,51853,1,8,0:0:0:0:
120,32,52043,1,8,0:0:0:0:
120,32,52138,1,8,0:0:0:0:
120,32,52233,6,0,P|58:79|46:143,1,140,6|8,0:0|0:0,0:0:0:0:
96,240,52803,1,0,0:0:0:0:
168,328,52993,2,0,P|196:300|208:268,2,70,2|2|8,0:0|0:0|0:0,0:0:0:0:
28,304,53562,2,0,P|0:228|20:176,1,140,6|2,0:0|0:0,0:0:0:0:
128,144,54132,1,8,0:0:0:0:
236,172,54322,2,0,P|306:145|320:84,1,140,6|2,0:0|0:0,0:0:0:0:
232,16,54891,1,8,0:0:0:0:
204,20,54986,1,8,0:0:0:0:
176,24,55081,1,8,0:0:0:0:
148,28,55176,1,8,0:0:0:0:
120,32,55271,6,0,P|58:79|46:143,1,140,6|8,0:0|0:0,0:0:0:0:
96,240,55841,1,0,0:0:0:0:
168,328,56031,2,0,P|196:300|208:268,2,70,2|2|8,0:0|0:0|0:0,0:0:0:0:
176,188,56600,2,0,P|249:182|300:224,1,140,6|2,0:0|0:0,0:0:0:0:
328,328,57170,1,8,0:0:0:0:
428,376,57360,2,0,P|444:308|412:248,1,140,6|2,0:0|0:0,0:0:0:0:
368,144,57929,2,0,P|415:108|432:64,1,105,8|0,0:0|0:0,0:0:0:0:
464,20,58309,6,0,L|484:88,2,70,6|2|8,0:0|0:0|0:0,0:0:0:0:
368,144,58879,2,0,P|288:152|241:120,1,140,6|6,0:0|0:0,0:0:0:0:
178,27,59448,1,8,0:0:0:0:
131,96,59638,1,8,0:0:0:0:
131,96,59733,1,8,0:0:0:0:
131,96,59828,6,0,L|59:104,2,70,6|2|8,0:0|0:0|0:0,0:0:0:0:
241,120,60398,2,0,P|248:200|208:248,1,140,6|6,0:0|0:0,0:0:0:0:
116,304,60967,1,8,0:0:0:0:
185,353,61157,1,8,0:0:0:0:
185,353,61252,1,8,0:0:0:0:
185,353,61347,6,0,P|220:368|251:368,2,70,6|2|8,0:0|0:0|0:0,0:0:0:0:
213,244,61917,2,0,L|344:292,1,140,6|6,0:0|0:0,0:0:0:0:
428,368,62486,1,8,0:0:0:0:
424,284,62676,5,4,0:0:0:0:
448,116,63056,2,0,L|508:80,1,70,6|8,0:0|0:0,0:0:0:0:
380,192,63436,1,2,0:0:0:0:
380,192,63625,2,0,P|302:179|280:128,1,140,6|8,0:0|0:0,0:0:0:0:
280,128,64385,5,6,0:0:0:0:
152,24,64765,1,8,0:0:0:0:
68,24,64955,1,2,0:0:0:0:
8,180,65334,1,2,0:0:0:0:
92,180,65524,1,8,0:0:0:0:
208,300,65904,5,6,0:0:0:0:
48,352,66284,1,8,0:0:0:0:
12,276,66474,1,2,0:0:0:0:
172,220,66853,1,2,0:0:0:0:
244,176,67043,1,8,0:0:0:0:
396,244,67423,6,0,P|468:240|508:188,1,140,6|8,0:0|0:0,0:0:0:0:
496,104,67993,1,0,0:0:0:0:
336,56,68372,1,2,0:0:0:0:
364,136,68562,1,8,0:0:0:0:
200,172,68942,6,0,P|128:192|84:152,1,140,6|8,0:0|0:0,0:0:0:0:
68,68,69512,1,0,0:0:0:0:
232,20,69891,1,2,0:0:0:0:
272,92,70081,1,8,0:0:0:0:
304,172,70271,1,2,0:0:0:0:
304,172,70461,6,0,P|304:252|260:288,1,140,6|8,0:0|0:0,0:0:0:0:
156,320,71030,2,0,L|288:376,1,140,2|2,0:0|0:0,0:0:0:0:
376,312,71600,1,8,0:0:0:0:
480,180,71980,5,6,0:0:0:0:
480,16,72360,1,8,0:0:0:0:
408,60,72549,2,0,P|332:67|284:24,1,140,2|2,0:0|0:0,0:0:0:0:
204,48,73119,1,8,0:0:0:0:
34,31,73499,5,6,0:0:0:0:
40,196,73879,1,8,0:0:0:0:
112,240,74068,2,0,P|136:164|108:116,1,140,2|2,0:0|0:0,0:0:0:0:
24,112,74638,1,8,0:0:0:0:
26,276,75018,6,0,P|45:302|80:324,1,70,6|2,0:0|0:0,0:0:0:0:
184,312,75398,2,0,P|182:346|167:378,1,70,8|2,0:0|0:0,0:0:0:0:
272,288,75777,2,0,L|334:319,1,70,2|12,0:0|0:0,0:0:0:0:
288,156,76157,1,12,0:0:0:0:
176,32,76537,6,0,P|248:12|298:46,1,140,6|8,0:0|0:0,0:0:0:0:
288,156,77106,2,0,P|345:191|410:170,1,140,2|2,0:0|0:0,0:0:0:0:
468,72,77676,1,8,0:0:0:0:
408,11,77866,1,0,0:0:0:0:
387,92,78056,1,2,0:0:0:0:
410,170,78246,2,0,L|376:232,1,70,2|8,0:0|0:0,0:0:0:0:
296,348,78625,2,0,P|224:336|192:280,1,140,2|2,0:0|0:0,0:0:0:0:
264,196,79195,2,0,L|276:264,1,70,8|0,0:0|0:0,0:0:0:0:
380,308,79575,6,0,P|432:353|500:344,1,140,6|8,0:0|0:0,0:0:0:0:
456,240,80144,2,0,P|508:192|500:128,1,140,2|2,0:0|0:0,0:0:0:0:
392,156,80714,2,0,L|324:172,1,70,8|0,0:0|0:0,0:0:0:0:
256,260,81094,1,2,0:0:0:0:
183,301,81284,1,2,0:0:0:0:
183,217,81474,1,8,0:0:0:0:
84,268,81663,2,0,P|16:252|0:184,1,140,2|2,0:0|0:0,0:0:0:0:
60,96,82233,2,0,P|86:64|96:24,1,70,8|0,0:0|0:0,0:0:0:0:
196,136,82613,6,0,P|268:152|320:116,1,140,6|8,0:0|0:0,0:0:0:0:
214,73,83182,2,0,P|190:145|205:207,1,140,2|2,0:0|0:0,0:0:0:0:
316,216,83752,2,0,L|380:184,1,70,8|0,0:0|0:0,0:0:0:0:
484,140,84132,1,2,0:0:0:0:
452,60,84322,1,2,0:0:0:0:
378,20,84512,1,8,0:0:0:0:
293,94,84701,2,0,P|277:160|316:216,1,140,2|2,0:0|0:0,0:0:0:0:
404,288,85271,1,8,0:0:0:0:
427,206,85461,1,0,0:0:0:0:
315,215,85651,6,0,P|288:288|312:344,1,140,6|8,0:0|0:0,0:0:0:0:
420,376,86220,2,0,P|481:328|490:268,1,140,2|2,0:0|0:0,0:0:0:0:
444,164,86790,2,0,L|376:140,1,70,8|2,0:0|0:0,0:0:0:0:
268,152,87170,6,0,L|212:108,1,70,6|2,0:0|0:0,0:0:0:0:
132,256,87549,2,0,L|198:229,1,70,8|2,0:0|0:0,0:0:0:0:
100,92,87929,2,0,L|89:162,2,70,2|12|12,0:0|0:0|0:0,0:0:0:0:
412,292,88689,6,0,P|472:259|489:191,1,140,6|8,0:0|0:0,0:0:0:0:
436,96,89258,1,0,0:0:0:0:
392,200,89448,2,0,L|324:212,2,70,2|2|8,0:0|0:0|0:0,0:0:0:0:
296,304,90018,2,0,P|231:269|220:208,1,140,6|2,0:0|0:0,0:0:0:0:
248,100,90587,2,0,P|272:73|284:40,1,70,8|0,0:0|0:0,0:0:0:0:
172,32,90967,1,2,0:0:0:0:
92,56,91157,1,2,0:0:0:0:
72,136,91347,2,0,L|104:200,1,70,8|0,0:0|0:0,0:0:0:0:
148,304,91727,6,0,P|88:352|28:344,1,140,6|8,0:0|0:0,0:0:0:0:
28,232,92296,1,0,0:0:0:0:
116,160,92486,2,0,P|152:152|184:128,2,70,2|2|8,0:0|0:0|0:0,0:0:0:0:
12,64,93056,2,0,P|56:16|128:12,1,140,6|2,0:0|0:0,0:0:0:0:
232,56,93625,2,0,P|271:52|304:40,1,70,8|0,0:0|0:0,0:0:0:0:
351,145,94005,1,2,0:0:0:0:
351,229,94195,1,2,0:0:0:0:
424,188,94385,2,0,L|488:160,1,70,8|0,0:0|0:0,0:0:0:0:
351,145,94765,6,0,P|288:176|272:240,1,140,6|8,0:0|0:0,0:0:0:0:
365,300,95334,1,0,0:0:0:0:
472,328,95524,2,0,P|493:299|496:264,2,70,2|2|8,0:0|0:0|0:0,0:0:0:0:
340,375,96094,2,0,L|220:300,1,140,6|2,0:0|0:0,0:0:0:0:
108,292,96663,1,8,0:0:0:0:
28,216,96853,2,0,P|0:288|20:344,1,140,2|2,0:0|0:0,0:0:0:0:
128,372,97423,2,0,P|162:363|192:336,1,70,8|0,0:0|0:0,0:0:0:0:
176,200,97803,6,0,P|190:123|248:96,1,140,6|8,0:0|0:0,0:0:0:0:
312,184,98372,1,0,0:0:0:0:
384,224,98562,1,2,0:0:0:0:
448,164,98752,2,0,L|500:112,1,70,2|8,0:0|0:0,0:0:0:0:
404,8,99132,2,0,P|358:71|376:128,1,140,6|2,0:0|0:0,0:0:0:0:
284,56,99701,1,8,0:0:0:0:
188,112,99891,2,0,P|148:188|168:236,1,140,6|2,0:0|0:0,0:0:0:0:
132,340,100461,1,8,0:0:0:0:
160,340,100556,1,8,0:0:0:0:
188,340,100651,1,8,0:0:0:0:
216,340,100746,1,8,0:0:0:0:
244,340,100841,6,0,P|318:319|348:268,1,140,6|8,0:0|0:0,0:0:0:0:
244,228,101410,1,0,0:0:0:0:
152,164,101600,2,0,P|125:138|116:108,2,70,2|2|8,0:0|0:0|0:0,0:0:0:0:
281,109,102170,2,0,P|289:177|244:228,1,140,6|2,0:0|0:0,0:0:0:0:
136,260,102739,2,0,L|60:276,1,70,8|0,0:0|0:0,0:0:0:0:
12,176,103119,1,2,0:0:0:0:
16,92,103309,1,2,0:0:0:0:
60,20,103499,2,0,L|128:36,1,70,8|0,0:0|0:0,0:0:0:0:
252,104,103879,6,0,P|316:76|336:12,1,140,6|8,0:0|0:0,0:0:0:0:
224,16,104448,1,0,0:0:0:0:
164,112,104638,2,0,P|164:156|172:180,2,70,2|2|8,0:0|0:0|0:0,0:0:0:0:
264,212,105208,2,0,P|208:264|144:264,1,140,6|2,0:0|0:0,0:0:0:0:
84,360,105777,2,0,L|20:328,1,70,8|2,0:0|0:0,0:0:0:0:
147,265,106157,5,2,0:0:0:0:
255,356,106347,1,12,0:0:0:0:
366,271,106537,1,12,0:0:0:0:
232,24,106917,6,0,P|300:4|360:32,1,140,6|8,0:0|0:0,0:0:0:0:
428,120,107486,1,0,0:0:0:0:
460,224,107676,2,0,P|494:207|512:176,2,70,2|2|8,0:0|0:0|0:0,0:0:0:0:
341,151,108246,2,0,P|324:217|366:271,1,140,6|2,0:0|0:0,0:0:0:0:
276,336,108815,1,8,0:0:0:0:
200,256,109005,2,0,P|216:190|175:136,1,140,2|2,0:0|0:0,0:0:0:0:
120,40,109575,1,8,0:0:0:0:
232,24,109765,1,8,0:0:0:0:
232,24,109860,1,8,0:0:0:0:
232,24,109955,6,0,P|300:4|360:32,1,140,6|8,0:0|0:0,0:0:0:0:
428,120,110524,1,0,0:0:0:0:
460,224,110714,2,0,P|494:207|512:176,2,70,2|2|8,0:0|0:0|0:0,0:0:0:0:
341,151,111284,2,0,P|324:217|366:271,1,140,6|2,0:0|0:0,0:0:0:0:
276,336,111853,1,8,0:0:0:0:
200,256,112043,2,0,P|216:190|175:136,1,140,6|2,0:0|0:0,0:0:0:0:
120,40,112613,1,8,0:0:0:0:
148,36,112708,1,8,0:0:0:0:
176,32,112803,1,8,0:0:0:0:
204,28,112898,1,8,0:0:0:0:
232,24,112993,6,0,P|300:4|360:32,1,140,6|8,0:0|0:0,0:0:0:0:
428,120,113562,1,0,0:0:0:0:
392,224,113752,2,0,P|372:252|341:267,2,70,2|2|8,0:0|0:0|0:0,0:0:0:0:
252,200,114322,2,0,P|225:281|246:328,1,140,6|2,0:0|0:0,0:0:0:0:
340,268,114891,1,8,0:0:0:0:
252,200,115081,2,0,P|176:188|120:220,1,140,6|2,0:0|0:0,0:0:0:0:
44,136,115651,2,0,P|88:144|136:112,1,105,8|0,0:0|0:0,0:0:0:0:
161,61,116030,6,0,L|205:116,2,70,6|2|8,0:0|0:0|0:0,0:0:0:0:
44,136,116600,2,0,P|8:200|28:260,1,140,6|6,0:0|0:0,0:0:0:0:
104,344,117170,2,0,L|172:360,1,70,8|8,0:0|0:0,0:0:0:0:
200,353,117455,1,8,0:0:0:0:
226,343,117549,6,0,L|268:284,1,70,6|2,0:0|0:0,0:0:0:0:
216,184,117929,1,8,0:0:0:0:
324,212,118119,2,0,P|360:272|345:338,1,140,6|6,0:0|0:0,0:0:0:0:
456,324,118689,1,8,0:0:0:0:
500,252,118879,1,8,0:0:0:0:
500,252,118974,1,8,0:0:0:0:
500,252,119068,6,0,L|448:204,1,70,6|2,0:0|0:0,0:0:0:0:
428,92,119448,1,8,0:0:0:0:
335,160,119638,2,0,P|381:210|448:204,1,140,6|6,0:0|0:0,0:0:0:0:
428,92,120208,1,8,0:0:0:0:
460,13,120398,5,4,0:0:0:0:
296,48,120777,2,0,L|228:24,1,70,6|8,0:0|0:0,0:0:0:0:
96,128,121157,1,2,0:0:0:0:
96,128,121347,2,0,P|148:92|152:20,1,140,6|8,0:0|0:0,0:0:0:0:
72,48,121917,1,2,0:0:0:0:
204,152,122106,5,6,0:0:0:0:
308,332,146410,6,0,P|373:302|392:236,1,140,6|8,0:0|0:0,0:0:0:0:
280,220,146980,1,0,0:0:0:0:
200,300,147170,2,0,P|160:310|136:332,1,70,2|2,0:0|0:0,0:0:0:0:
36,372,147549,1,8,0:0:0:0:
36,372,147739,2,0,P|8:300|44:256,1,140,6|2,0:0|0:0,0:0:0:0:
136,192,148309,2,0,P|170:211|200:211,1,70,8|0,0:0|0:0,0:0:0:0:
280,130,148689,1,2,0:0:0:0:
184,70,148879,1,2,0:0:0:0:
75,98,149068,2,0,L|11:72,1,70,8|0,0:0|0:0,0:0:0:0:
184,70,149448,6,0,P|180:139|136:192,1,140,6|8,0:0|0:0,0:0:0:0:
68,292,150018,1,0,0:0:0:0:
176,272,150208,2,0,L|244:252,2,70,2|2|8,0:0|0:0|0:0,0:0:0:0:
292,352,150777,2,0,L|432:344,1,140,6|2,0:0|0:0,0:0:0:0:
508,260,151347,2,0,L|438:264,1,70,8|0,0:0|0:0,0:0:0:0:
328,248,151727,1,2,0:0:0:0:
288,174,151917,1,2,0:0:0:0:
372,176,152106,2,0,L|442:172,1,70,8|0,0:0|0:0,0:0:0:0:
319,56,152486,6,0,P|274:107|288:174,1,140,6|8,0:0|0:0,0:0:0:0:
248,280,153056,1,0,0:0:0:0:
172,364,153246,2,0,P|132:356|100:364,1,70,2|2,0:0|0:0,0:0:0:0:
24,284,153625,1,8,0:0:0:0:
80,188,153815,2,0,P|88:112|45:70,1,140,6|2,0:0|0:0,0:0:0:0:
4,175,154385,1,8,0:0:0:0:
24,284,154575,2,0,P|93:296|152:256,1,140,2|2,0:0|0:0,0:0:0:0:
224,176,155144,2,0,P|188:168|157:178,1,70,8|0,0:0|0:0,0:0:0:0:
292,280,155524,6,0,P|344:228|344:164,1,140,6|8,0:0|0:0,0:0:0:0:
320,56,156094,1,0,0:0:0:0:
212,84,156284,2,0,L|144:112,1,70,2|2,0:0|0:0,0:0:0:0:
92,12,156663,1,8,0:0:0:0:
212,84,156853,2,0,P|224:160|192:211,1,140,6|2,0:0|0:0,0:0:0:0:
104,280,157423,1,8,0:0:0:0:
192,210,157613,2,0,P|223:288|199:339,1,140,6|2,0:0|0:0,0:0:0:0:
292,265,158182,1,8,0:0:0:0:
320,265,158277,1,8,0:0:0:0:
348,265,158372,1,8,0:0:0:0:
376,265,158467,1,8,0:0:0:0:
404,265,158562,6,0,P|444:328|416:379,1,140,6|8,0:0|0:0,0:0:0:0:
304,376,159132,1,0,0:0:0:0:
292,265,159322,2,0,P|272:232|268:200,1,70,2|2,0:0|0:0,0:0:0:0:
348,120,159701,1,8,0:0:0:0:
267,201,159891,2,0,P|192:216|140:184,1,140,6|2,0:0|0:0,0:0:0:0:
48,124,160461,2,0,L|48:200,1,70,8|0,0:0|0:0,0:0:0:0:
16,304,160841,1,2,0:0:0:0:
80,356,161030,1,0,0:0:0:0:
160,336,161220,2,0,L|232:316,1,70,8|0,0:0|0:0,0:0:0:0:
364,216,161600,6,0,P|420:172|432:104,1,140,6|8,0:0|0:0,0:0:0:0:
356,28,162170,1,0,0:0:0:0:
244,12,162360,2,0,P|200:16|176:32,2,70,2|2|8,0:0|0:0|0:0,0:0:0:0:
280,148,162929,2,0,P|226:204|164:200,1,140,6|2,0:0|0:0,0:0:0:0:
80,132,163499,2,0,L|148:108,1,70,8|2,0:0|0:0,0:0:0:0:
280,148,163879,5,2,0:0:0:0:
173,237,164068,1,12,0:0:0:0:
80,132,164258,1,12,0:0:0:0:
256,352,164638,6,0,P|324:372|384:344,1,140,6|8,0:0|0:0,0:0:0:0:
448,252,165208,1,0,0:0:0:0:
340,224,165398,2,0,P|321:268|322:294,2,70,2|2|8,0:0|0:0|0:0,0:0:0:0:
392,64,165967,2,0,P|448:104|448:172,1,140,6|2,0:0|0:0,0:0:0:0:
340,136,166537,1,8,0:0:0:0:
228,124,166727,2,0,P|191:195|211:249,1,140,2|2,0:0|0:0,0:0:0:0:
144,336,167296,1,8,0:0:0:0:
256,352,167486,1,8,0:0:0:0:
256,352,167581,1,8,0:0:0:0:
256,352,167676,6,0,P|324:372|384:344,1,140,6|8,0:0|0:0,0:0:0:0:
448,252,168246,1,0,0:0:0:0:
340,224,168436,2,0,P|321:268|322:294,2,70,2|2|8,0:0|0:0|0:0,0:0:0:0:
392,64,169005,2,0,P|448:104|448:172,1,140,6|2,0:0|0:0,0:0:0:0:
340,136,169575,1,8,0:0:0:0:
228,124,169765,2,0,P|191:195|211:249,1,140,6|2,0:0|0:0,0:0:0:0:
144,336,170334,1,8,0:0:0:0:
172,340,170429,1,8,0:0:0:0:
200,344,170524,1,8,0:0:0:0:
228,348,170619,1,8,0:0:0:0:
256,352,170714,6,0,P|324:372|384:344,1,140,6|8,0:0|0:0,0:0:0:0:
448,252,171284,1,0,0:0:0:0:
392,156,171474,2,0,P|344:149|319:156,2,70,2|2|8,0:0|0:0|0:0,0:0:0:0:
248,244,172043,2,0,P|196:184|200:128,1,140,6|2,0:0|0:0,0:0:0:0:
100,180,172613,1,8,0:0:0:0:
24,264,172803,2,0,P|49:331|113:351,1,140,6|2,0:0|0:0,0:0:0:0:
220,371,173372,2,0,P|181:337|181:286,1,105,8|0,0:0|0:0,0:0:0:0:
164,232,173752,6,0,L|104:272,2,70,6|2|8,0:0|0:0|0:0,0:0:0:0:
294,179,174322,2,0,P|305:246|264:300,1,140,6|6,0:0|0:0,0:0:0:0:
376,320,174891,2,0,L|448:348,1,70,8|8,0:0|0:0,0:0:0:0:
468,336,175176,1,8,0:0:0:0:
493,323,175271,6,0,L|508:252,1,70,6|2,0:0|0:0,0:0:0:0:
440,164,175651,1,8,0:0:0:0:
335,204,175841,2,0,P|328:271|376:320,1,140,6|6,0:0|0:0,0:0:0:0:
264,344,176410,1,8,0:0:0:0:
184,368,176600,1,8,0:0:0:0:
184,368,176695,1,8,0:0:0:0:
184,368,176790,6,0,L|128:324,2,70,6|2|8,0:0|0:0|0:0,0:0:0:0:
220,232,177360,2,0,P|165:175|109:179,1,140,6|6,0:0|0:0,0:0:0:0:
6,224,177929,1,8,0:0:0:0:
60,288,178119,5,6,0:0:0:0:
160,88,178499,2,0,L|224:60,1,70,6|8,0:0|0:0,0:0:0:0:
92,12,178879,1,2,0:0:0:0:
109,178,179068,5,6,0:0:0:0:
256,192,179163,12,12,180777,0:0:0:0:
